<?xml version="1.0" standalone="no"?>
<!DOCTYPE svg PUBLIC "-//W3C//DTD SVG 1.1//EN" "http://www.w3.org/Graphics/SVG/1.1/DTD/svg11.dtd" >
<svg xmlns="http://www.w3.org/2000/svg">
<metadata>
<json>
<![CDATA[
{
	"fontFamily": "Iconly-Broken",
	"fontURL": "",
	"designer": "",
	"designerURL": "",
	"license": "MIT",
	"licenseURL": "https://opensource.org/licenses/MIT",
	"description": "Iconly - Essential icons\nFont generated by IcoMoon.",
	"copyright": "MIT",
	"majorVersion": 1,
	"minorVersion": 0,
	"version": "Version 1.0",
	"fontId": "Iconly-Broken",
	"psName": "Iconly-Broken",
	"subFamily": "Regular",
	"fullName": "Iconly-Broken"
}
]]>
</json>
</metadata>
<defs>
<font id="Iconly-Broken" horiz-adv-x="1024">
<font-face units-per-em="1024" ascent="960" descent="-64" />
<missing-glyph horiz-adv-x="1024" />
<glyph unicode="&#x20;" horiz-adv-x="512" d="" />
<glyph unicode="&#xe900;" glyph-name="Activity" data-tags="Activity" d="M827.802 653.43c44.873 0 85.321 26.992 102.46 68.373 17.135 41.381 7.582 88.989-24.205 120.595-31.782 31.606-79.526 40.977-120.943 23.737-41.412-17.24-68.326-57.69-68.173-102.465 0.209-60.945 49.779-110.241 110.861-110.24zM827.802 811.454c26.449 0 47.889-21.393 47.889-47.784s-21.44-47.783-47.889-47.783c-26.449 0-47.889 21.393-47.889 47.783s21.44 47.784 47.889 47.784zM148.305 277.559c0-124.915 69.006-193.391 193.819-193.391 17.408-0.205 31.471-14.238 31.675-31.607-0.207-17.306-14.327-31.228-31.675-31.228-158.373 0-256.791 98.202-256.791 256.226v307.393c0 158.4 98.418 256.601 256.791 256.601h277.532c17.344-0.206 31.296-14.295 31.296-31.604 0-8.348-3.349-16.349-9.301-22.216-5.948-5.868-14.007-9.113-22.374-9.012h-277.152c-124.813 0-193.819-68.853-193.819-193.768v-307.393zM591.753 359.582c-5.282-6.507-12.817-10.803-21.12-12.041-8.26-0.841-16.521 1.591-23.002 6.771l-115.763 90.675-104.073-135.074c-4.963-6.737-12.425-11.204-20.718-12.407s-16.721 0.964-23.401 6.012c-13.63 10.662-16.15 30.272-5.656 44.023l123.305 160.282c5.143 6.643 12.726 10.974 21.074 12.032 8.35 1.058 16.777-1.242 23.42-6.391l115.763-90.675 101.811 129.807c11.179 10.603 28.429 11.503 40.649 2.121 12.224-9.381 15.778-26.247 8.375-39.747l-120.666-155.388zM877.201 584.953c-17.284 0-31.3-13.981-31.3-31.229v-276.165c-1.131-124.915-70.135-193.391-194.948-193.391h-125.943c-17.408-0.205-31.471-14.238-31.676-31.607 0.205-17.306 14.327-31.228 31.676-31.228h125.943c158.374 0 257.169 98.202 257.169 256.226v276.165c0 17.101-13.786 31.023-30.921 31.229z" />
<glyph unicode="&#xe901;" glyph-name="Add-User" data-tags="Add User" d="M589.841 646.231c0 92.16-74.697 167.124-166.526 167.124s-166.525-74.965-166.525-167.124c0-92.16 74.696-167.127 166.525-167.127s166.526 74.967 166.526 167.127zM650.889 646.231c0-125.953-102.076-228.434-227.574-228.434s-227.574 102.481-227.574 228.434c0 125.951 102.075 228.436 227.574 228.436 125.498 0 227.574-102.485 227.574-228.436zM906.782 531.691h-55.1v53.505c0 17.664-14.281 32-31.885 32-17.6 0-31.885-14.336-31.885-32v-53.505h-55.010c-17.6 0-31.885-14.336-31.885-32s14.285-32 31.885-32h55.010v-53.542c0-17.664 14.285-32 31.885-32 17.604 0 31.885 14.336 31.885 32v53.542h55.1c17.6 0 31.885 14.336 31.885 32s-14.285 32-31.885 32zM423.315 335.36c-145.098 0-337.981-16.213-337.981-156.587 0-42.027 19.471-98.773 112.236-130.304 16.027-5.547 33.288 3.243 38.729 19.2 5.399 16-3.146 33.408-19.131 38.827-63.473 21.589-70.785 51.584-70.785 72.277 0 63.232 93.19 95.317 276.932 95.317s276.931-32.341 276.931-96.171c0-63.275-93.188-95.317-276.931-95.317-14.029 0-27.846 0.171-41.408 0.597-16.325-0.128-30.907-12.843-31.375-29.739-0.51-16.939 12.754-31.061 29.589-31.573 14.157-0.341 28.569-0.555 43.194-0.555 145.099 0 337.982 16.256 337.982 156.587 0 157.44-254.4 157.44-337.982 157.44z" />
<glyph unicode="&#xe902;" glyph-name="Arrow---Down" data-tags="Arrow - Down" d="M455.245 797.091c0 19.27 15.872 34.909 35.43 34.909 19.554 0 35.426-15.639 35.426-34.909v-698.181c0-14.153-8.644-26.859-21.918-32.256-4.343-1.771-8.926-2.654-13.508-2.654-9.212 0-18.33 3.537-25.084 10.287l-284.609 281.6c-13.793 13.636-13.746 35.746 0.095 49.34 13.888 13.589 36.326 13.589 50.119-0.094l224.049-221.696v613.654zM750.135 405.137c13.794 13.683 36.233 13.683 50.121 0.094 13.841-13.594 13.888-35.703 0.094-49.387l-156.971-155.277c-6.942-6.886-16.013-10.287-25.131-10.287-9.024 0-18.044 3.401-24.99 10.197-13.888 13.589-13.935 35.652-0.094 49.335l156.971 155.324z" />
<glyph unicode="&#xe903;" glyph-name="Arrow---Down-2" data-tags="Arrow - Down 2" d="M180.979 629.589c13.718 13.849 35.958 13.944 49.676-0.095l306.203-312.579c13.717-13.99 13.67-36.595-0.094-50.492-6.835-6.903-15.825-10.423-24.768-10.423-9.037 0-18.027 3.52-24.862 10.517l-306.202 312.578c-13.718 13.992-13.671 36.597 0.047 50.494zM793.297 629.489c13.722 14.039 35.959 13.944 49.677 0.095 13.764-13.897 13.811-36.502 0.141-50.494l-203.337-207.592c-6.839-6.997-15.872-10.517-24.862-10.517-8.943 0-17.933 3.52-24.768 10.423-13.764 13.897-13.811 36.501-0.141 50.492l203.29 207.593z" />
<glyph unicode="&#xe904;" glyph-name="Arrow---Down-3" data-tags="Arrow - Down 3" d="M716.062 458.172h-173.453v342.502c0 17.292-13.713 31.326-30.605 31.326s-30.605-14.034-30.605-31.326v-342.502h-173.455c-11.139 0-21.422-6.182-26.808-16.209-5.386-9.98-5.019-22.178 0.898-31.782l204.059-331.52c5.632-9.148 15.386-14.66 25.911-14.66s20.279 5.513 25.911 14.66l126.938 206.298c9.020 14.575 4.736 33.954-9.545 43.187-14.323 9.19-33.216 4.804-42.236-9.856l-101.069-164.151-148.649 241.378h352.706c16.896 0 30.605 14.037 30.605 31.33 0 17.289-13.709 31.326-30.605 31.326z" />
<glyph unicode="&#xe905;" glyph-name="Arrow---Down-Circle" data-tags="Arrow - Down Circle" d="M447.211 869.803c21.248 3.243 43.051 4.864 64.811 4.864 235.264 0 426.667-191.403 426.667-426.667s-191.403-426.667-426.667-426.667c-235.264 0-426.667 191.403-426.667 426.667 0 133.461 60.715 256.725 166.485 338.219 13.568 10.453 33.109 7.893 43.52-5.632 10.496-13.568 7.893-33.024-5.632-43.563-90.496-69.589-142.336-174.976-142.336-289.024 0-201.045 163.541-364.629 364.63-364.629 201.045 0 364.587 163.584 364.587 364.629s-163.541 364.629-364.587 364.629c-18.645 0-37.291-1.408-55.424-4.181-16.896-2.56-32.726 9.045-35.328 25.984-2.816 17.024 9.003 32.768 25.942 35.371zM511.987 328.781c-8.491 0-16.64 3.371-22.656 9.429l-148.096 148.736c-12.501 12.544-12.459 32.811 0.085 45.269s32.768 12.459 45.227-0.085l125.44-125.995 125.44 125.995c12.459 12.544 32.725 12.544 45.269 0.085 12.501-12.459 12.544-32.725 0.085-45.269l-148.139-148.736c-5.973-6.059-14.123-9.429-22.656-9.429z" />
<glyph unicode="&#xe906;" glyph-name="Arrow---Down-Square" data-tags="Arrow - Down Square" d="M639.479 841.904c0 18.005 14.635 32.64 32.64 32.64 164.48 0.128 266.539-101.931 266.539-266.283v-320.129c0-164.736-102.059-266.795-266.411-266.795h-320.002c-164.821 0-266.923 102.059-266.923 266.795v320.001c0 163.712 102.101 266.539 266.795 266.539h109.612c17.792 0 32.256-14.464 32.256-32.256v-0.384h-0.725c0-18.005-14.592-32.597-32.597-32.64h-108.546c-130.261 0-201.515-71.253-201.515-201.131v-320.001c0-129.963 71.68-201.643 201.515-201.643h320.002c129.451 0 201.131 71.68 201.131 201.515v320.001c0 129.835-71.68 201.131-201.131 201.131-18.005 0-32.64 14.635-32.64 32.64zM479.996 622.337v-271.19l-105.26 105.685c-12.459 12.544-32.683 12.587-45.227 0.085-12.587-12.459-12.501-32.725-0.085-45.227l159.916-160.597c0-0.043 0-0.043 0.043-0.043 2.901-2.944 6.443-5.291 10.368-6.912 3.883-1.621 8.021-2.475 12.203-2.475h0.043c0.294 0 0.546 0.077 0.798 0.149 0.218 0.064 0.435 0.132 0.695 0.149 3.627 0.171 7.253 0.768 10.709 2.176 3.499 1.451 6.571 3.627 9.387 6.144 0.137 0.141 0.294 0.23 0.452 0.324 0.183 0.111 0.367 0.218 0.529 0.401 2.987 2.944 5.333 6.485 6.955 10.368 1.621 3.968 2.475 8.064 2.475 12.288v348.673c0 17.664-14.336 32-32 32s-32-14.336-32-32zM640.038 356.877l54.528 54.784c6.229 6.272 9.344 14.421 9.344 22.571 0 8.235-3.115 16.427-9.429 22.741-12.544 12.459-32.768 12.416-45.227-0.128l-54.528-54.784c-12.459-12.544-12.459-32.768 0.043-45.269 12.544-12.459 32.811-12.416 45.269 0.085z" />
<glyph unicode="&#xe907;" glyph-name="Arrow---Left" data-tags="Arrow - Left" d="M865.468 412.843c17.207 2.185 30.532 17.097 30.532 35.149 0 19.558-15.637 35.43-34.91 35.43h-613.655l221.697 224.049 3.136 3.619c10.453 13.855 9.417 33.77-3.042 46.501-13.594 13.841-35.703 13.888-49.34 0.095l-281.6-284.609-3.105-3.563c-4.724-6.234-7.181-13.845-7.181-21.521 0-4.582 0.884-9.165 2.653-13.508 5.399-13.274 18.106-21.918 32.256-21.918l702.559 0.277zM469.231 138.411c13.589 13.888 13.589 36.326-0.094 50.121l-155.323 156.971-3.586 3.17c-13.716 10.564-33.294 9.463-45.752-3.264-6.796-6.946-10.193-15.966-10.193-24.99 0-9.118 3.398-18.189 10.287-25.131l155.276-156.971 3.587-3.162c13.723-10.53 33.341-9.434 45.8 3.255z" />
<glyph unicode="&#xe908;" glyph-name="Arrow---Left-2" data-tags="Arrow - Left 2" d="M693.585 778.974c13.85-13.718 13.943-35.958-0.094-49.676l-207.595-203.291-3.665-3.132c-14.033-10.436-34.091-9.348-46.827 3.273-6.903 6.835-10.424 15.824-10.424 24.766 0 8.989 3.52 18.026 10.518 24.861l207.59 203.339 3.669 3.132c14.033 10.436 34.086 9.345 46.827-3.273zM696.708 163.059c10.714-13.769 9.574-33.506-3.119-46.080-13.897-13.717-36.501-13.764-50.496-0.047l-312.576 306.202-3.209 3.588c-4.864 6.246-7.309 13.743-7.309 21.274 0 8.943 3.522 17.933 10.423 24.768 13.897 13.764 36.502 13.811 50.494 0.094l312.579-306.202 3.213-3.597z" />
<glyph unicode="&#xe909;" glyph-name="Arrow---Left-3" data-tags="Arrow - Left 3" d="M522.172 243.938v173.453h342.502c17.293 0 31.326 13.713 31.326 30.605s-14.033 30.605-31.326 30.605h-342.502v173.455c0 11.139-6.182 21.422-16.209 26.808-9.98 5.386-22.178 5.019-31.782-0.898l-331.52-204.059c-9.147-5.632-14.661-15.386-14.661-25.911s5.513-20.279 14.661-25.911l206.295-126.938c14.577-9.020 33.958-4.736 43.189 9.545 9.189 14.323 4.803 33.216-9.858 42.236l-164.151 101.069 241.379 148.649v-352.706c0-16.896 14.037-30.605 31.33-30.605 17.289 0 31.326 13.709 31.326 30.605z" />
<glyph unicode="&#xe90a;" glyph-name="Arrow---Left-Circle" data-tags="Arrow - Left Circle" d="M933.824 512.811c3.243-21.248 4.864-43.051 4.864-64.811 0-235.264-191.403-426.667-426.667-426.667s-426.667 191.403-426.667 426.667c0 235.264 191.403 426.667 426.667 426.667 133.461 0 256.725-60.715 338.219-166.485 10.453-13.568 7.893-33.109-5.632-43.52-13.568-10.496-33.024-7.893-43.563 5.632-69.589 90.496-174.976 142.336-289.024 142.336-201.046 0-364.63-163.541-364.63-364.629 0-201.045 163.584-364.587 364.63-364.587s364.629 163.541 364.629 364.587c0 18.645-1.408 37.291-4.181 55.424-2.56 16.896 9.045 32.725 25.984 35.328 17.024 2.816 32.768-9.003 35.371-25.941zM392.802 448.034c0 8.491 3.371 16.64 9.429 22.656l148.736 148.096c12.544 12.501 32.811 12.459 45.269-0.085s12.459-32.768-0.085-45.227l-125.995-125.44 125.995-125.44c12.544-12.459 12.544-32.725 0.085-45.269-12.459-12.501-32.725-12.544-45.269-0.085l-148.736 148.139c-6.059 5.973-9.429 14.123-9.429 22.656z" />
<glyph unicode="&#xe90b;" glyph-name="Arrow---Left-Square" data-tags="Arrow - Left Square" d="M905.89 320.512c18.005 0 32.64-14.635 32.64-32.64 0.128-164.48-101.931-266.539-266.283-266.539h-320.13c-164.736 0-266.795 102.059-266.795 266.411v320c0 164.821 102.059 266.923 266.795 266.923h320.002c163.712 0 266.539-102.101 266.539-266.795v-109.611c0-17.792-14.464-32.256-32.256-32.256h-0.384v0.725c-18.005 0-32.597 14.592-32.64 32.597v108.544c0 130.261-71.253 201.515-201.131 201.515h-320.002c-129.963 0-201.643-71.68-201.643-201.515v-320c0-129.451 71.68-201.131 201.515-201.131h320.002c129.835 0 201.131 71.68 201.131 201.131 0 18.005 14.635 32.64 32.64 32.64zM686.323 479.996h-271.191l105.687 105.259c12.544 12.459 12.587 32.683 0.085 45.227-12.459 12.587-32.725 12.501-45.227 0.085l-160.599-159.915c-0.042 0-0.042 0-0.042-0.043-2.944-2.901-5.291-6.443-6.912-10.368-1.621-3.883-2.474-8.021-2.474-12.203v-0.043c0-0.299 0.074-0.546 0.149-0.798 0.064-0.218 0.13-0.439 0.15-0.695 0.171-3.627 0.768-7.253 2.176-10.709 1.451-3.499 3.627-6.571 6.144-9.387 0.138-0.137 0.23-0.294 0.324-0.452 0.108-0.183 0.218-0.367 0.401-0.529 2.944-2.987 6.485-5.333 10.368-6.955 3.968-1.621 8.064-2.475 12.288-2.475h348.674c17.664 0 32 14.336 32 32s-14.336 32-32 32zM420.862 319.953l54.786-54.528c6.272-6.229 14.421-9.344 22.571-9.344 8.235 0 16.427 3.115 22.741 9.429 12.459 12.544 12.416 32.768-0.128 45.227l-54.784 54.528c-12.544 12.459-32.768 12.459-45.271-0.043-12.459-12.544-12.416-32.811 0.085-45.269z" />
<glyph unicode="&#xe90c;" glyph-name="Arrow---Right" data-tags="Arrow - Right" d="M554.769 757.59c-13.589-13.888-13.589-36.326 0.094-50.119l155.324-156.972 3.584-3.171c13.717-10.566 33.293-9.465 45.751 3.266 6.797 6.944 10.197 15.966 10.197 24.989 0 9.117-3.401 18.187-10.287 25.131l-155.277 156.972-3.588 3.16c-13.722 10.53-33.34 9.433-45.798-3.255zM158.532 483.157c-17.207-2.185-30.532-17.097-30.532-35.149 0-19.558 15.639-35.43 34.909-35.43h613.654l-221.696-224.047-3.136-3.618c-10.453-13.858-9.417-33.771 3.042-46.502 13.594-13.841 35.703-13.888 49.34-0.094l281.6 284.608 3.106 3.563c4.723 6.234 7.181 13.845 7.181 21.521 0 4.582-0.883 9.165-2.654 13.508-5.397 13.274-18.103 21.918-32.256 21.918l-702.558-0.277z" />
<glyph unicode="&#xe90d;" glyph-name="Arrow---Right-2" data-tags="Arrow - Right 2" d="M330.415 778.974c-13.849-13.718-13.944-35.958 0.095-49.676l207.593-203.291 3.665-3.132c14.033-10.436 34.091-9.348 46.827 3.273 6.903 6.835 10.423 15.824 10.423 24.766 0 8.989-3.52 18.026-10.517 24.861l-207.592 203.339-3.667 3.132c-14.031 10.436-34.088 9.345-46.827-3.273zM327.29 163.059c-10.712-13.769-9.574-33.506 3.121-46.080 13.897-13.717 36.502-13.764 50.494-0.047l312.578 306.202 3.209 3.588c4.864 6.246 7.309 13.743 7.309 21.274 0 8.943-3.52 17.933-10.423 24.768-13.897 13.764-36.501 13.811-50.492 0.094l-312.579-306.202-3.216-3.597z" />
<glyph unicode="&#xe90e;" glyph-name="Arrow---Right-3" data-tags="Arrow - Right 3" d="M501.828 652.064v-173.455h-342.502c-17.292 0-31.326-13.713-31.326-30.605s14.034-30.605 31.326-30.605h342.502v-173.457c0-11.136 6.182-21.419 16.209-26.807 9.98-5.385 22.178-5.018 31.782 0.9l331.52 204.058c9.148 5.632 14.66 15.386 14.66 25.911s-5.513 20.279-14.66 25.911l-206.298 126.939c-14.575 9.018-33.954 4.733-43.187-9.548-9.19-14.322-4.804-33.214 9.856-42.232l164.151-101.071-241.378-148.646v352.706c0 16.893-14.037 30.603-31.33 30.603-17.289 0-31.326-13.71-31.326-30.603z" />
<glyph unicode="&#xe90f;" glyph-name="Arrow---Right-Circle" data-tags="Arrow - Right Circle" d="M90.218 383.189c-3.243 21.248-4.864 43.051-4.864 64.811 0 235.264 191.403 426.667 426.667 426.667s426.667-191.403 426.667-426.667c0-235.264-191.403-426.667-426.667-426.667-133.462 0-256.726 60.715-338.219 166.485-10.453 13.568-7.893 33.109 5.632 43.52 13.568 10.496 33.024 7.893 43.563-5.632 69.589-90.496 174.976-142.336 289.024-142.336 201.045 0 364.629 163.541 364.629 364.629 0 201.045-163.584 364.587-364.629 364.587s-364.63-163.541-364.63-364.587c0-18.645 1.408-37.291 4.181-55.424 2.56-16.896-9.045-32.725-25.984-35.328-17.024-2.816-32.768 9.003-35.371 25.941zM631.241 447.966c0-8.491-3.371-16.64-9.429-22.656l-148.736-148.096c-12.544-12.501-32.811-12.459-45.269 0.085s-12.459 32.768 0.085 45.227l125.995 125.44-125.995 125.44c-12.544 12.459-12.544 32.725-0.085 45.269 12.459 12.501 32.725 12.544 45.269 0.085l148.736-148.139c6.059-5.973 9.429-14.123 9.429-22.656z" />
<glyph unicode="&#xe910;" glyph-name="Arrow---Right-Square" data-tags="Arrow - Right Square" d="M118.091 575.488c-18.005 0-32.64 14.635-32.64 32.64-0.128 164.48 101.931 266.539 266.283 266.539h320.13c164.736 0 266.795-102.059 266.795-266.411v-320c0-164.821-102.059-266.923-266.795-266.923h-320.002c-163.712 0-266.539 102.101-266.539 266.795v109.611c0 17.792 14.464 32.256 32.256 32.256h0.384v-0.725c18.005 0 32.597-14.592 32.64-32.597v-108.544c0-130.261 71.253-201.515 201.131-201.515h320.002c129.963 0 201.643 71.68 201.643 201.515v320c0 129.451-71.68 201.131-201.515 201.131h-320.002c-129.835 0-201.131-71.68-201.131-201.131 0-18.005-14.635-32.64-32.64-32.64zM337.658 416.004h271.191l-105.685-105.259c-12.544-12.459-12.587-32.683-0.085-45.227 12.459-12.587 32.725-12.501 45.227-0.085l160.597 159.915c0.043 0 0.043 0 0.043 0.043 2.944 2.901 5.291 6.443 6.912 10.368 1.621 3.883 2.475 8.021 2.475 12.203v0.043c0 0.299-0.077 0.546-0.149 0.798-0.064 0.218-0.132 0.439-0.149 0.695-0.171 3.627-0.768 7.253-2.176 10.709-1.451 3.499-3.627 6.571-6.144 9.387-0.141 0.137-0.235 0.294-0.324 0.452-0.111 0.183-0.218 0.367-0.401 0.529-2.944 2.987-6.485 5.333-10.368 6.955-3.968 1.621-8.064 2.475-12.288 2.475h-348.674c-17.664 0-32-14.336-32-32s14.336-32 32-32zM603.119 576.047l-54.784 54.528c-6.272 6.229-14.421 9.344-22.571 9.344-8.235 0-16.427-3.115-22.741-9.429-12.459-12.544-12.416-32.768 0.128-45.227l54.784-54.528c12.544-12.459 32.768-12.459 45.269 0.043 12.459 12.544 12.416 32.811-0.085 45.269z" />
<glyph unicode="&#xe911;" glyph-name="Arrow---Up" data-tags="Arrow - Up" d="M476.843 94.532c2.185-17.207 17.097-30.532 35.149-30.532 19.558 0 35.43 15.637 35.43 34.91v613.655l224.047-221.697 3.618-3.136c13.858-10.453 33.771-9.417 46.502 3.042 13.841 13.594 13.888 35.703 0.094 49.34l-284.608 281.6-3.563 3.105c-6.234 4.724-13.845 7.181-21.521 7.181-4.582 0-9.165-0.884-13.508-2.653-13.274-5.399-21.918-18.106-21.918-32.256v-698.181l0.277-4.378zM202.41 490.769c13.888-13.589 36.326-13.589 50.119 0.094l156.972 155.323 3.171 3.586c10.566 13.716 9.465 33.294-3.266 45.752-6.944 6.796-15.966 10.193-24.989 10.193-9.117 0-18.187-3.398-25.131-10.287l-156.972-155.276-3.16-3.587c-10.53-13.723-9.433-33.341 3.255-45.8z" />
<glyph unicode="&#xe912;" glyph-name="Arrow---Up-2" data-tags="Arrow - Up 2" d="M227.057 263.292c-13.769-10.714-33.504-9.574-46.079 3.119-13.718 13.897-13.765 36.501-0.047 50.496l306.202 312.576 3.588 3.209c6.246 4.864 13.743 7.309 21.274 7.309 8.943 0 17.933-3.522 24.768-10.423 13.764-13.897 13.811-36.502 0.094-50.494l-306.203-312.579-3.597-3.213zM842.974 266.415c-13.717-13.85-35.955-13.943-49.677 0.094l-203.29 207.595-3.132 3.665c-10.436 14.033-9.348 34.091 3.273 46.827 6.835 6.903 15.825 10.424 24.768 10.424 8.99 0 18.022-3.52 24.862-10.518l203.337-207.59 3.132-3.669c10.436-14.033 9.344-34.086-3.273-46.827z" />
<glyph unicode="&#xe913;" glyph-name="Arrow---Up-3" data-tags="Arrow - Up 3" d="M307.936 437.828h173.455v-342.502c0-17.293 13.713-31.326 30.605-31.326s30.605 14.033 30.605 31.326v342.502h173.457c11.136 0 21.419 6.182 26.807 16.209 5.385 9.98 5.018 22.178-0.9 31.782l-204.058 331.52c-5.632 9.147-15.386 14.661-25.911 14.661s-20.279-5.513-25.911-14.661l-126.939-206.295c-9.018-14.577-4.733-33.958 9.548-43.189 14.322-9.189 33.214-4.803 42.232 9.858l101.071 164.151 148.646-241.379h-352.706c-16.893 0-30.603-14.037-30.603-31.33 0-17.289 13.71-31.326 30.603-31.326z" />
<glyph unicode="&#xe914;" glyph-name="Arrow---Up-Circle" data-tags="Arrow - Up Circle" d="M576.832 26.197c-21.248-3.243-43.051-4.864-64.811-4.864-235.264 0-426.667 191.403-426.667 426.667s191.403 426.667 426.667 426.667c235.264 0 426.667-191.403 426.667-426.667 0-133.461-60.715-256.725-166.485-338.219-13.568-10.453-33.109-7.893-43.52 5.632-10.496 13.568-7.893 33.024 5.632 43.563 90.496 69.589 142.336 174.976 142.336 289.024 0 201.045-163.541 364.629-364.629 364.629-201.046 0-364.587-163.584-364.587-364.629s163.541-364.629 364.587-364.629c18.645 0 37.291 1.408 55.424 4.181 16.896 2.56 32.725-9.045 35.328-25.984 2.816-17.024-9.003-32.768-25.941-35.371zM512.055 567.219c8.491 0 16.64-3.371 22.656-9.429l148.096-148.736c12.501-12.544 12.459-32.811-0.085-45.269s-32.768-12.459-45.227 0.085l-125.44 125.995-125.44-125.995c-12.459-12.544-32.725-12.544-45.269-0.085-12.501 12.459-12.544 32.725-0.085 45.269l148.139 148.736c5.973 6.059 14.123 9.429 22.656 9.429z" />
<glyph unicode="&#xe915;" glyph-name="Arrow---Up-Square" data-tags="Arrow - Up Square" d="M384.502 54.101c0-18.005-14.635-32.64-32.64-32.64-164.48-0.128-266.539 101.931-266.539 266.283v320.128c0 164.736 102.059 266.795 266.411 266.795h320.002c164.821 0 266.923-102.059 266.923-266.795v-320c0-163.712-102.101-266.539-266.795-266.539h-109.611c-17.792 0-32.256 14.464-32.256 32.256v0.384h0.725c0 18.005 14.592 32.597 32.597 32.64h108.544c130.261 0 201.515 71.253 201.515 201.131v320c0 129.963-71.68 201.643-201.515 201.643h-320.002c-129.451 0-201.131-71.68-201.131-201.515v-320c0-129.835 71.68-201.131 201.131-201.131 18.005 0 32.64-14.635 32.64-32.64zM543.987 273.668v271.189l105.259-105.685c12.459-12.544 32.683-12.587 45.227-0.085 12.587 12.459 12.501 32.725 0.085 45.227l-159.915 160.597c0 0.043 0 0.043-0.043 0.043-2.901 2.944-6.443 5.291-10.368 6.912-3.883 1.621-8.021 2.475-12.203 2.475h-0.043c-0.299 0-0.55-0.074-0.802-0.149-0.218-0.065-0.435-0.13-0.691-0.15-3.627-0.171-7.253-0.768-10.709-2.176-3.499-1.451-6.571-3.627-9.387-6.144-0.141-0.138-0.294-0.231-0.452-0.324-0.183-0.108-0.371-0.218-0.529-0.401-2.987-2.944-5.333-6.485-6.955-10.368-1.621-3.968-2.475-8.064-2.475-12.288v-348.672c0-17.664 14.336-32 32-32s32 14.336 32 32zM383.943 539.127l-54.528-54.784c-6.229-6.272-9.344-14.421-9.344-22.571 0-8.235 3.115-16.427 9.429-22.741 12.544-12.459 32.768-12.416 45.227 0.128l54.53 54.784c12.459 12.544 12.459 32.768-0.043 45.269-12.546 12.459-32.812 12.416-45.271-0.085z" />
<glyph unicode="&#xe916;" glyph-name="Bag" data-tags="Bag" d="M913.229 288.132l-32.235 250.531c-20.617 112.515-95.206 150.020-158.178 150.020-9.455 82.078-66.129 150.983-144.802 176.064-78.677 25.081-164.741 1.678-219.907-59.799-8.035-8.643-10.851-20.917-7.389-32.201s12.679-19.862 24.177-22.503c11.498-2.641 23.53 1.056 31.565 9.698v3.751c53.009 59.208 143.94 64.244 203.157 11.251 24.922-22.57 41.331-53.025 46.481-86.261h-351.592c-60.348 0-133.44-37.505-158.178-151.895l-9.371-56.255c-1.778-17.254 10.095-32.943 27.175-35.908 17.080-2.961 33.539 7.808 37.67 24.653l8.996 55.134c13.869 62.633 48.728 100.138 93.708 100.138h418.31c47.228 0 82.086-37.505 93.333-97.514l31.859-247.906c9.745-67.507 0-117.013-24.363-146.645-24.367-29.628-71.219-43.878-139.063-43.878h-341.844c-49.93-3.371-98.993 14.306-135.313 48.755-29.561 40.905-39.826 92.672-28.112 141.769 2.588 17.916-9.83 34.543-27.737 37.129-17.907 2.59-34.52-9.835-37.108-27.75-19.001-67.853-2.793-140.719 43.175-194.103s115.593-80.201 185.471-71.433h341.469c88.461 0 149.931 21.751 187.418 66.385 37.483 44.629 53.598 111.761 41.229 198.775zM618.987 446.775c4.681-1.788 9.617-2.799 14.622-2.999 9.886 0.141 19.315 4.186 26.236 11.251 4.019 3.277 7.117 7.543 8.994 12.378 2.099 4.45 3.127 9.331 2.999 14.251 0.388 2.487 0.388 5.018 0 7.501-0.346 2.483-1.105 4.894-2.249 7.125-0.589 2.368-1.745 4.557-3.371 6.379-2.884 3.942-6.289 7.475-10.121 10.5-4.301 2.594-8.981 4.493-13.871 5.628-4.809 1.118-9.809 1.118-14.618 0-2.47-0.41-4.868-1.165-7.121-2.253-2.389-0.819-4.659-1.954-6.75-3.375l-5.619-4.877c-1.894-1.519-3.43-3.439-4.501-5.623l-3.746-6.379v-7.125c-0.38-2.483-0.38-5.013 0-7.501-0.26-4.89 0.64-9.775 2.624-14.251 2.816-8.649 8.678-15.983 16.491-20.629zM432.7 481.28c0-20.71-16.783-37.504-37.485-37.504-9.625 0.337-18.752 4.365-25.488 11.251-3.547 3.533-6.351 7.744-8.246 12.378-1.792 4.535-2.684 9.374-2.624 14.251-0.387 2.487-0.387 5.018 0 7.501 0.347 2.483 1.108 4.894 2.249 7.125 0.748 2.304 1.89 4.463 3.374 6.379 1.067 2.185 2.603 4.105 4.498 5.623 1.641 1.771 3.536 3.29 5.622 4.501 1.914 1.485 4.070 2.628 6.372 3.375 2.232 1.143 4.639 1.903 7.121 2.253 4.809 1.118 9.81 1.118 14.618 0 2.483-0.35 4.89-1.109 7.122-2.253 2.303-0.747 4.459-1.89 6.372-3.375 2.246-1.297 4.271-2.94 5.998-4.877 1.895-1.519 3.431-3.439 4.498-5.623 1.455-1.997 2.714-4.134 3.746-6.379l2.253-7.125c0.201-2.496 0.201-5.005 0-7.501z" />
<glyph unicode="&#xe917;" glyph-name="Bag-2" data-tags="Bag 2" d="M709.133 683.776h-8.819c-1.126 105.429-84.881 190.891-187.814 190.891-51.84-0.725-97.651-19.627-133.308-55.936-35.199-35.755-54.755-83.371-55.503-134.955h-8.82c-114.793 0-208.201-95.787-208.201-213.547v-235.349c0-117.76 93.407-213.547 208.201-213.547 17.225 0 31.205 14.336 31.205 32s-13.98 32-31.205 32c-80.384 0-145.79 67.072-145.79 149.547v235.349c0 82.475 65.406 149.547 145.79 149.547h8.612v-67.456c0-17.664 13.98-32 31.205-32s31.205 14.336 31.205 32v129.963c0.125 34.432 13.356 66.773 37.196 91.051 23.924 24.192 55.834 35.413 89.289 37.333 68.608 0 124.403-56.747 125.525-126.891h-136.512c-17.225 0-31.202-14.336-31.202-32s13.978-32 31.202-32h136.721v-67.456c0-17.664 13.982-32 31.206-32s31.202 14.336 31.202 32v67.456h8.614c80.384 0 145.792-67.072 145.792-149.547v-235.349c0-82.475-65.408-149.547-145.792-149.547h-224.303c-17.225 0-31.202-14.336-31.202-32s13.978-32 31.202-32h224.303c114.795 0 208.201 95.787 208.201 213.547v235.349c0 117.76-93.406 213.547-208.201 213.547z" />
<glyph unicode="&#xe918;" glyph-name="Bookmark" data-tags="Bookmark" d="M662.438 874.667h-294.255c-121.379 0-197.517-84.731-197.517-220.677v-561.105c0-39.518 31.289-71.552 69.885-71.552 11.685 0.009 23.186 2.982 33.471 8.661l239.449 132.932 278.805-133.687c7.556-3.247 16.068-3.29 23.659-0.111s13.632 9.314 16.798 17.058c4.676 14.268-0.99 29.943-13.606 37.658l-276.966 132.557c-18.095 10.185-40.021 10.185-58.116 0l-239.815-132.557c-2.75-1.54-6.077-1.54-8.828 0-2.615 1.724-4.152 4.727-4.046 7.91v562.235c0.368 100.547 49.655 157.788 137.931 157.788h294.252c113.289 0 129.839-94.145 129.839-150.633v-25.608h-318.528c-8.098-0.294-15.748-3.873-21.269-9.948s-8.452-14.147-8.154-22.438c0.384-16.471 13.338-29.729 29.423-30.127h317.427v-329.509c0-17.263 13.666-31.258 30.528-31.258 16.717 0 30.327 13.769 30.528 30.882v418.005c0 131.803-72.828 213.521-190.895 213.521z" />
<glyph unicode="&#xe919;" glyph-name="Buy" data-tags="Buy" d="M916.885 675.649c-16.939 19.985-41.557 31.479-67.456 31.479h-458.442c-17.664 0-32-14.629-32-32.655s14.336-32.655 32-32.655h458.442c10.027 0 16.256-5.573 19.072-8.882 2.816-3.352 7.339-10.449 5.888-20.55l-40.491-285.576c-3.2-22.383-22.315-39.275-44.501-39.275h-465.523c-23.594 0-42.836 18.069-44.799 42.018l-41.087 499.486c-1.195 14.804-12.075 26.951-26.41 29.476l-88.787 15.718c-17.621 2.874-34.004-8.838-36.991-26.646-2.987-17.764 8.661-34.658 26.068-37.749l64.425-11.364 38.996-474.365c4.779-58.082 51.455-101.884 108.584-101.884h465.523c53.803 0 100.139 40.93 107.819 95.223l40.529 285.576c3.712 26.211-3.925 52.64-20.86 72.624zM252.073 87.253c0 36.356 29.012 65.963 64.638 65.963s64.596-29.606 64.596-65.963c0-36.356-28.97-65.92-64.596-65.92s-64.638 29.564-64.638 65.92zM732.19 87.253c0 36.356 28.966 65.963 64.593 65.963s64.64-29.606 64.64-65.963c0-36.356-29.013-65.92-64.64-65.92s-64.593 29.564-64.593 65.92zM753.015 513.523c0-18.027-14.336-32.653-32-32.653h-118.315c-17.702 0-31.996 14.626-31.996 32.653s14.293 32.656 31.996 32.656h118.315c17.664 0 32-14.629 32-32.656z" />
<glyph unicode="&#xe91a;" glyph-name="Calendar" data-tags="Calendar" d="M701.961 843.303v-44.155c128.371-12.454 194.039-83.405 194.039-210.965v-352.868c0-141.901-80.883-213.982-240.047-213.982h-287.907c-159.165 0-240.047 72.081-240.047 213.982v352.868c0 84.914 28.939 145.676 88.302 181.151 9.357 6.387 21.464 6.833 31.251 1.151s15.567-16.512 14.919-27.956c-0.647-11.444-7.61-21.528-17.974-26.031-39.327-23.398-57.878-64.157-57.878-128.315v-11.322h541.312c16.188 0 29.308-13.348 29.308-29.815s-13.12-29.816-29.308-29.816h-541.312v-281.916c0-108.309 52.684-153.22 181.426-153.975h287.907c126.886 0 181.056 46.042 181.056 154.355v352.866c0 94.349-41.182 140.014-135.049 150.959v-28.682c-2.167-15.288-15.326-26.449-30.498-25.866s-27.469 12.72-28.493 28.131v132.844c0.286 7.978 3.708 15.505 9.493 20.896 5.79 5.391 13.461 8.196 21.299 7.786 16.158-1.011 28.629-14.861 28.198-31.324zM371.574 691.508c-5.577-5.602-13.128-8.699-20.966-8.598-16.042 0.412-28.776 13.87-28.568 30.192v130.202c1.687 15.274 14.385 26.822 29.495 26.822s27.809-11.547 29.495-26.822v-41.136h167.7c16.188 0 29.308-13.348 29.308-29.814s-13.12-29.814-29.308-29.814h-168.442v-29.815c0.001-7.973-3.138-15.614-8.716-21.216zM690.829 421.751c-20.489 0-37.103-16.896-37.103-37.739s16.614-37.743 37.103-37.743c20.493 0 37.103 16.9 37.103 37.743 0 10.074-3.959 19.729-10.999 26.82-7.036 7.087-16.572 11.021-26.475 10.918h0.371zM475.639 384.013c0 20.843 16.61 37.739 37.103 37.739 20.489 0 37.103-16.896 37.103-37.739s-16.614-37.743-37.103-37.743c-20.493 0-37.103 16.9-37.103 37.743zM335.026 421.751c-20.49 0-37.101-16.896-37.101-37.739s16.611-37.743 37.101-37.743c20.491 0 37.102 16.9 37.102 37.743 0 10.074-3.959 19.729-10.998 26.82-7.038 7.087-16.571 11.021-26.475 10.918h0.371zM653.726 231.168c0 20.843 16.614 37.739 37.103 37.739h-0.371c9.903 0.098 19.439-3.831 26.475-10.918 7.040-7.091 10.999-16.747 10.999-26.82 0-20.847-16.61-37.743-37.103-37.743-20.489 0-37.103 16.896-37.103 37.743zM512.742 268.907c-20.493 0-37.103-16.896-37.103-37.739 0-20.847 16.61-37.743 37.103-37.743 20.489 0 37.103 16.896 37.103 37.743 0 20.843-16.614 37.739-37.103 37.739zM297.925 231.168c0 20.843 16.611 37.739 37.101 37.739h-0.371c9.904 0.098 19.436-3.831 26.475-10.918 7.038-7.091 10.998-16.747 10.998-26.82 0-20.847-16.611-37.743-37.102-37.743s-37.101 16.896-37.101 37.743z" />
<glyph unicode="&#xe91b;" glyph-name="Call" data-tags="Call" d="M165.136 727.553c-21.974-30.193-20.438-68.872 3.157-120.685 7.296-16.077 0.213-35.011-15.872-42.347-16.128-7.292-35.030-0.256-42.369 15.864-33.58 73.648-32.94 135.142 1.877 182.605 12.971 21.706 94.509 116.079 164.527 111.516 22.017-1.834 42.156-12.069 61.058-30.491 20.139-19.66 104.705-122.519 111.489-155.057 7.292-34.981-8.418-62.299-19.895-82.252l-0.030-0.052c-11.305-19.66-15.231-28.061-11.348-38.679 28.543-69.808 72.664-126.866 130.734-168.317 14.379-10.321 17.664-30.281 7.381-44.651-6.229-8.7-16.043-13.389-26.027-13.389-6.485 0-12.971 1.958-18.603 5.969-68.015 48.657-119.556 115.055-153.221 197.402-14.806 40.726 2.773 71.259 15.616 93.562 9.643 16.717 14.976 26.696 12.715 37.357-5.974 15.395-68.354 97.742-93.528 122.263-7.765 7.633-15.062 12.111-20.48 12.538-30.55 0.725-93.016-59.66-107.181-83.157zM752.964 385.135c32.683-6.78 135.471-91.302 155.14-111.386 18.517-18.935 28.757-39.108 30.507-59.874 2.773-78.596-102.485-160.73-114.56-167.637-22.955-16.546-49.882-24.905-80.175-24.905-30.123 0-63.573 8.273-99.797 25.161-139.311 57.826-350.005 245.338-468.536 417.408-10.027 14.541-6.357 34.458 8.192 44.476 14.592 9.894 34.518 6.315 44.502-8.23 110.723-160.725 312.968-341.666 441.655-395.145 52.053-24.179 90.795-25.673 119.642-4.988 22.485 13.602 86.357 77.056 85.205 110.063-0.384 3.883-4.821 11.174-12.373 18.893-24.576 25.161-107.055 87.552-124.292 94.033-13.611 2.897-27.776-5.376-49.365-18.978l-10.923-6.78c-15.147-9.084-34.816-4.267-43.947 10.918-9.088 15.095-4.224 34.752 10.923 43.878l9.856 6.101c23.893 15.053 56.875 35.605 98.347 26.991z" />
<glyph unicode="&#xe91c;" glyph-name="Call-Missed" data-tags="Call Missed" d="M168.286 606.845c-23.593 51.816-25.129 90.497-3.157 120.691 14.164 23.499 76.624 85.167 107.172 83.162 5.418-0.427 12.714-4.905 20.479-12.496 25.129-24.479 87.546-106.916 93.519-122.312 2.261-10.662-3.072-20.641-12.714-37.359-12.842-22.304-30.42-52.84-15.615-93.568 33.662-82.393 85.2-148.752 153.207-197.371 5.632-4.053 12.16-5.969 18.603-5.969 9.98 0 19.793 4.689 26.022 13.389 10.283 14.417 6.955 34.334-7.424 44.651-58.022 41.412-102.135 98.432-130.678 168.287-3.882 10.619 0.043 19.021 11.348 38.681l0.030 0.052c11.473 19.954 27.183 47.274 19.895 82.257-6.784 32.668-91.387 135.49-111.482 155.065-18.9 18.423-39.037 28.659-61.052 30.493-70.011 4.691-151.542-89.815-164.512-111.523-34.814-47.466-35.454-108.921-1.877-182.615 7.296-16.078 26.324-23.243 42.365-15.865 16.084 7.335 23.166 26.271 15.871 42.349zM752.913 385.114c-41.553 8.529-74.364-11.9-98.253-26.91l-9.941-6.14c-15.147-9.088-20.053-28.745-10.923-43.93 9.088-15.095 28.715-19.959 43.9-10.918l11.008 6.869c21.589 13.517 35.84 21.705 49.323 18.893 17.19-6.485 99.661-68.834 124.237-93.995 7.595-7.761 12.028-15.057 12.412-18.935 1.152-33.011-62.758-96.427-85.197-110.071-28.843-20.642-67.58-19.149-119.671 4.988-128.678 53.521-330.903 234.475-441.574 395.127-10.026 14.626-29.95 18.167-44.498 8.273-14.548-10.065-18.217-29.939-8.192-44.48 118.478-172.083 329.152-359.561 468.493-417.476 36.22-16.802 69.67-25.075 99.789-25.075 30.251 0 57.173 8.358 80.166 24.947 12.032 6.869 117.325 89.007 114.556 167.518-1.749 20.898-12.032 41.028-30.507 59.921-19.669 20.045-122.445 104.614-155.127 111.394zM885.175 775.953l-61.265-61.241 105.382-105.338c12.497-12.496 12.497-32.71 0-45.206-6.272-6.269-14.464-9.382-22.656-9.382-8.149 0-16.341 3.113-22.613 9.382l-105.378 105.296-105.34-105.296c-6.268-6.269-14.46-9.382-22.652-9.382-8.149 0-16.341 3.113-22.613 9.382-12.501 12.495-12.501 32.71 0 45.206l105.382 105.338-105.382 105.338c-12.501 12.496-12.501 32.71 0 45.206s32.768 12.496 45.265 0l105.34-105.296 105.378 105.296c12.501 12.496 32.768 12.496 45.269 0 12.497-12.495 12.497-32.71 0-45.206l-44.075-44.055c0-0.043-0.043-0.043-0.043-0.043z" />
<glyph unicode="&#xe91d;" glyph-name="Call-Silent" data-tags="Call Silent" d="M268.248 363.981c-9.174 0-18.262 3.921-24.577 11.469-63.105 75.52-109.357 146.692-133.721 205.921-33.324 72.577-32.768 134.11 2.048 181.613 7.467 12.451 87.895 116.498 164.825 111.509 21.632-1.791 41.687-11.94 60.674-30.233 16.043-15.437 43.052-48.783 62.721-75.051 45.443-60.552 47.704-73.387 49.027-81.105 7.194-33.921-8.516-61.3-19.989-81.289l-0.064-0.115c-11.266-19.573-15.149-27.93-11.309-38.336 3.285-8.102 7.211-16.801 11.351-25.287 7.765-15.863 1.195-35.050-14.723-42.768-15.872-7.718-35.030-1.195-42.796 14.669-4.779 9.847-9.344 19.955-13.526 30.359-14.922 40.308 2.618 70.823 15.458 93.163l0.031 0.053c9.6 16.716 14.976 26.779 12.715 37.483v-0.043c-0.013 0-0.083 0.132-0.232 0.417-1.293 2.465-8.572 16.345-37.145 54.42-21.12 28.144-44.673 56.501-55.937 67.417-10.624 10.192-17.408 12.153-20.566 12.452-27.564 2.175-93.015-59.657-107.352-83.238-21.932-30.106-20.268-68.782 3.456-120.592 22.4-54.412 65.196-119.869 124.163-190.354 11.35-13.559 9.558-33.732-4.011-45.073-5.973-4.988-13.27-7.462-20.523-7.462zM670.639 365.329c20.096 11.511 47.531 27.204 82.645 19.827 32.602-6.31 135.471-91.127 155.055-111.339 18.389-19.187 28.544-39.232 30.251-59.742 3.162-79.27-102.656-160.973-114.773-167.753-22.741-16.589-49.579-24.99-79.791-24.99-30.037 0-63.403 8.273-99.584 25.118-78.554 32.448-183.599 108.309-284.083 204.851l-220.422-220.245c-12.459-12.497-32.726-12.497-45.228 0-12.502 12.493-12.502 32.747 0 45.244l242.779 242.633c11.989 12.023 33.238 12.023 45.228 0 101.635-101.53 209.070-181.53 287.453-213.935 51.968-24.222 90.581-25.502 119.215-4.949 22.784 13.734 86.613 76.885 85.333 110.148-0.171 1.745-2.133 8.482-12.459 19.23-23.424 24.179-106.756 87.245-123.78 93.598-9.131 2.005-19.115-3.494-35.925-13.175l-0.021-0.013c-22.315-12.791-52.855-30.302-92.352-15.851-60.335 24.777-111.364 58.125-152.794 99.529-12.501 12.493-12.501 32.751 0 45.244l426.675 426.421c12.501 12.495 32.768 12.495 45.227 0 12.506-12.494 12.506-32.749 0-45.243l-402.995-402.755c30.72-25.673 66.645-46.95 107.098-63.582 9.301-3.366 17.707 0.469 37.248 11.729z" />
<glyph unicode="&#xe91e;" glyph-name="Calling" data-tags="Calling" d="M580.966 846.478c1.967 17.385 17.515 30.171 34.735 27.934 170.871-19.073 303.612-152.585 322.761-324.623 1.971-17.386-10.475-33.083-27.695-34.982-1.216-0.128-2.389-0.209-3.563-0.209-15.757 0-29.372 11.942-31.177 28.102-15.919 142.458-125.786 253.014-267.281 268.838-17.263 1.941-29.666 17.554-27.78 34.939zM163.685 720.127c-21.579-29.876-20.070-68.191 3.101-119.46 7.165-15.908 0.209-34.644-15.587-41.902-15.754-7.258-34.442-0.211-41.607 15.697-32.934 72.875-32.347 133.723 1.844 180.73 7.207 12.237 86.944 115.283 161.569 110.346 21.579-1.772 41.356-11.942 59.96-30.213 19.735-19.369 102.825-121.106 109.485-153.429 7.159-34.614-8.269-61.645-19.537-81.389l-0.029-0.052c-11.104-19.453-14.959-27.766-11.145-38.273 28.075-69.118 71.399-125.536 128.342-166.509 14.118-10.214 17.387-29.918 7.292-44.181-6.118-8.61-15.757-13.248-25.562-13.248-6.327 0-12.736 1.899-18.266 5.905-66.748 48.064-117.366 113.724-150.467 195.289-14.54 40.298 2.724 70.512 15.336 92.581 9.47 16.541 14.707 26.415 12.486 36.965-5.866 15.233-67.167 96.8-91.846 121.021-7.626 7.553-14.791 11.984-20.113 12.406-28.241 1.308-91.343-59.076-105.254-82.284zM644.501 354.692c23.462 14.852 55.642 35.063 96.495 26.581 32.055-6.665 133.035-90.342 152.307-110.259 18.146-18.65 28.241-38.571 29.961-59.247 2.722-77.683-100.685-158.955-112.503-165.79-22.583-16.375-49.024-24.644-78.733-24.644-29.581 0-62.43 8.188-98.005 24.811-136.845 57.306-343.793 242.846-460.109 413.111-9.847 14.349-6.243 34.052 8.045 44.011 14.288 9.792 33.898 6.289 43.703-8.183 108.649-158.959 307.259-338.044 433.672-391.002 51.162-23.881 89.25-25.361 117.53-4.937 22.042 13.504 84.809 76.25 83.678 108.911-0.38 3.84-4.736 11.055-12.151 18.735-24.137 24.896-105.088 86.588-122.014 93.005-13.491 2.743-27.238-5.278-48.397-18.654l-10.893-6.835c-14.878-8.986-34.236-4.092-43.115 10.803-8.969 15.023-4.151 34.475 10.726 43.465l9.805 6.118zM727.962 539.802c2.931-15.108 16.090-25.57 30.797-25.57 2.010 0 4.066 0.166 6.076 0.546 17.054 3.337 28.156 20.003 24.845 37.135-17.011 87.77-84.301 155.539-171.456 172.628-16.802 2.912-33.519-7.891-36.873-25.023-3.311-17.132 7.838-33.8 24.849-37.134 61.884-12.111 109.696-60.215 121.762-122.583z" />
<glyph unicode="&#xe91f;" glyph-name="Camera" data-tags="Camera" d="M752.555 688.834c-3.499 0-6.699 2.046-9.728 8.396-12.117 25.701-26.965 57.113-35.883 74.673-19.541 38.445-53.077 59.798-94.763 60.096h-200.619c-41.387-0.298-74.965-21.652-94.507-60.139-8.661-17.049-22.955-47.31-34.859-72.585l-2.517-5.285c-1.493-3.154-4.651-5.157-8.192-5.157-102.656 0-186.155-83.41-186.155-185.917v-253.001c0-102.507 83.499-185.916 186.155-185.916h31.787c17.664 0 32 14.319 32 31.966s-14.336 31.966-32 31.966h-31.787c-67.371 0-122.155 54.729-122.155 121.984v253.001c0 67.259 54.784 121.985 122.155 121.985 28.117 0 54.059 16.41 66.048 41.769l2.517 5.328c11.648 24.721 25.643 54.3 34.091 70.965 8.747 17.219 20.48 24.976 37.717 25.104h200.064c17.493-0.128 29.184-7.885 37.931-25.062 8.704-17.219 23.253-47.949 36.651-76.335 11.989-25.36 37.931-41.769 66.048-41.769 67.328 0 122.112-54.726 122.112-121.985v-253.001c0-67.255-54.784-121.984-122.112-121.984h-301.141c-17.664 0-32-14.319-32-31.966s14.336-31.966 32-31.966h301.141c102.613 0 186.112 83.409 186.112 185.916v253.001c0 102.507-83.499 185.917-186.112 185.917zM512.034 223.825c44.843 0 87.083 17.647 118.955 49.698 31.701 31.881 49.024 73.822 48.64 117.85 0.043 44.668-17.451 86.822-49.237 118.575-31.744 31.709-73.771 49.141-118.357 49.141h-0.085c-12.288 0-24.576-1.321-36.48-4.049-17.237-3.793-28.117-20.927-24.235-38.146 3.84-17.178 20.907-28.173 38.187-24.166 7.381 1.621 14.933 2.428 22.571 2.428h0.043c27.52 0 53.461-10.825 73.088-30.43 19.712-19.691 30.549-45.692 30.507-73.566 0.213-27.106-10.453-52.851-30.037-72.585-19.755-19.861-45.909-30.814-73.557-30.814h-0.085c-27.648 0.043-53.632 10.867-73.216 30.515-19.627 19.648-30.379 45.692-30.336 73.395 0 10.611 1.664 21.141 4.907 31.241 5.333 16.794-3.968 34.782-20.821 40.149-16.939 5.286-34.859-3.921-40.192-20.757-5.205-16.41-7.893-33.37-7.893-50.59-0.085-44.668 17.323-86.822 48.981-118.575s73.728-49.271 118.485-49.314h0.171zM767.151 501.244c-2.987-2.982-6.4-5.542-10.24-7.245-3.84-1.707-8.107-2.176-12.373-2.176-8.107 0-16.213 3.025-22.613 9.421-5.973 5.965-9.387 14.063-9.387 22.545 0 3.878 0.853 8.141 2.56 11.935 1.707 3.836 4.267 7.672 6.827 10.656 2.987 2.6 6.827 5.157 10.667 6.862 7.68 2.983 16.64 2.983 24.32 0 3.84-1.705 7.68-4.262 10.24-6.862 2.987-2.984 5.547-6.819 7.253-10.656 1.707-3.794 2.56-8.057 2.56-11.935 0-8.482-3.413-16.58-9.813-22.545z" />
<glyph unicode="&#xe920;" glyph-name="Category" data-tags="Category" d="M916.958 727.759v-122.119c0.401-33.203-12.134-65.209-34.854-88.977-22.716-23.765-53.751-37.346-86.276-37.751h-49.655c-16.823 1.839-29.581 16.333-29.581 33.604s12.757 31.762 29.581 33.601h48.149c15.232 0.101 29.794 6.401 40.457 17.503 10.667 11.102 16.55 26.089 16.35 41.636v122.503c-0.405 31.852-25.604 57.573-56.806 57.987h-120c-31.373 0-56.802-25.962-56.802-57.987v-183.178c-0.614-18.574-15.654-33.247-33.856-33.025-8.747 0.201-17.054 3.968-23.061 10.462s-9.22 15.172-8.913 24.099v181.642c-0.102 33.269 12.774 65.21 35.785 88.771s54.259 36.803 86.848 36.803h120c67.204-1.629 121.246-56.966 122.637-125.574zM349.679 853.333h-120.001c-67.766-0.419-122.6-56.396-123.011-125.574v-122.503c0.413-69.115 55.305-124.983 123.011-125.192h120.001c32.59-0.102 63.879 13.043 86.959 36.531 23.078 23.491 36.053 55.392 36.053 88.661v122.503c-0.209 69.265-55.162 125.364-123.013 125.574zM406.481 605.256c0.201-15.547-5.683-30.534-16.346-41.636s-25.226-17.402-40.457-17.503h-120.001c-15.457-0.317-30.374 5.812-41.306 16.972s-16.936 26.387-16.626 42.167v122.503c-0.003 15.581 6.136 30.507 17.034 41.416s25.638 16.881 40.897 16.571h120.001c31.286-0.209 56.598-26.049 56.803-57.987v-122.503zM674.321 415.936h120c67.708-0.209 122.598-56.077 123.012-125.193v-122.5c-0.41-69.18-55.245-125.158-123.012-125.577h-120c-67.703 0.422-122.428 56.457-122.633 125.577v122.5c0 69.141 54.903 125.193 122.633 125.193zM834.598 127.125c10.675 10.897 16.627 25.707 16.529 41.118v122.5c0 15.381-5.986 30.127-16.64 41.003-10.65 10.876-25.101 16.986-40.166 16.986h-120c-31.373 0-56.802-25.963-56.802-57.988v-122.5c-0.102-15.411 5.85-30.221 16.525-41.118s25.182-16.973 40.277-16.87h120c15.095-0.102 29.602 5.973 40.277 16.87zM106.667 168.623v122.121c0 33.267 12.972 65.169 36.052 88.657 23.080 23.492 54.369 36.634 86.959 36.531h49.28c12.6 1.378 24.864-4.706 31.586-15.671 6.722-10.97 6.722-24.887 0-35.853-6.722-10.97-18.986-17.054-31.586-15.676h-49.28c-31.433 0-56.972-25.903-57.179-57.988v-120.969c0.8-31.829 25.995-57.378 57.179-57.984h120.753c15.13-0.102 29.676 5.961 40.41 16.845 10.734 10.889 16.77 25.694 16.77 41.139v181.645c-2.453 13.564 3.415 27.29 14.827 34.675 11.41 7.386 26.075 6.95 37.049-1.101 10.97-8.051 16.047-22.101 12.826-35.494v-180.877c0-69.35-55.072-125.572-123.009-125.572h-119.625c-67.349 1.425-121.613 56.819-123.011 125.572z" />
<glyph unicode="&#xe921;" glyph-name="Chart" data-tags="Chart" d="M938.667 508.791c0-18.031-14.618-32.649-32.649-32.649h-0.375c-8.691 0-17.015 3.503-23.087 9.719-6.076 6.212-9.387 14.618-9.182 23.305v98.692c0 129.839-71.676 201.513-201.515 201.513h-319.718c-130.214 0-201.513-71.674-201.513-201.513v-320.094c0-129.839 71.674-201.139 201.513-201.139h319.718c130.214 0 201.515 71.676 201.515 201.139 0 18.031 14.613 32.649 32.644 32.649s32.649-14.618 32.649-32.649c0-164.361-102.071-266.432-266.432-266.432h-320.094c-164.738 0-266.807 102.071-266.807 266.432v320.094c0 164.738 102.070 266.807 266.807 266.807h319.718c163.989 0 266.807-102.070 266.807-266.807v-99.068zM296.978 247.987v273.186c0.292 8.631 4.029 16.783 10.375 22.636s14.774 8.919 23.398 8.512c8.66-0.294 16.849-4.018 22.761-10.353s9.064-14.762 8.76-23.419v-272.811c-0.622-18.031-15.743-32.145-33.773-31.522-18.031 0.619-32.143 15.74-31.522 33.771zM480.853 647.636v-400.025c0-18.031 14.618-32.644 32.649-32.644s32.649 14.613 32.649 32.644v400.025c0 18.031-14.618 32.647-32.649 32.647s-32.649-14.617-32.649-32.647zM661.726 247.987v127.59c0 18.027 14.618 32.644 32.649 32.644s32.649-14.618 32.649-32.644v-127.59c0-18.031-14.618-32.644-32.649-32.644s-32.649 14.613-32.649 32.644z" />
<glyph unicode="&#xe922;" glyph-name="Chat" data-tags="Chat" d="M512.286 874.667c69.026 0 137.788-17.027 198.882-49.239 208.009-109.754 288.004-368.276 178.325-576.357-74.807-141.888-222.101-227.738-377.694-227.738-30.396 0-61.094 3.268-91.643 10.035-17.209 3.836-28.068 20.898-24.273 38.114s20.816 28.002 38.139 24.282c158.899-35.332 322.948 40.93 398.959 185.114 93.261 176.883 25.25 396.729-151.612 490.019-51.925 27.401-110.391 41.872-169.118 41.872h-0.414c-199.933 0-362.628-162.713-362.628-362.714-0.075-58.257 14.128-116.254 41.068-167.787l8.191-16.013c10.032-18.795 12.249-42.133 5.749-63.258-8.98-23.68-16.457-46.72-22.62-69.649 23.972 7.219 53.242 17.856 74.397 25.562l8.68 3.119c16.42 6.127 34.869-2.556 40.881-19.17 6.012-16.576-2.592-34.918-19.163-40.896l-10.026-3.648c-31.499-11.413-73.91-26.782-102.696-33.225-2.48-0.525-5.148-0.862-7.59-0.789-19.614 0-31.562 7.932-38.138 14.622-10.107 10.261-14.917 24.657-14.353 42.773 0.075 2.069 0.338 4.211 0.826 6.276 7.59 32.324 17.472 64.576 29.421 95.812 0.864 3.042 0.338 8.567-2.104 13.193l-8.229 15.974c-31.525 60.365-48.245 128.657-48.17 197.141 0 235.218 191.327 426.573 426.466 426.573h0.486zM273.215 448.038c0 28.002 22.732 50.743 50.725 50.743s50.725-22.741 50.725-50.743c0-27.964-22.732-50.705-50.725-50.705s-50.725 22.741-50.725 50.705zM562.539 448.051c0 27.968-22.733 50.743-50.726 50.743-27.989 0-50.722-22.775-50.722-50.743 0-27.964 22.733-50.739 50.722-50.739 27.994 0 50.726 22.775 50.726 50.739zM699.686 498.795c27.989 0 50.722-22.775 50.722-50.743 0-27.964-22.733-50.739-50.722-50.739-27.994 0-50.726 22.775-50.726 50.739 0 27.968 22.733 50.743 50.726 50.743z" />
<glyph unicode="&#xe923;" glyph-name="Close-Square" data-tags="Close Square" d="M906.419 466.010c17.792 0 32.256 14.464 32.256 32.256v109.612c0 164.736-102.827 266.795-266.539 266.795h-320.001c-164.736 0-266.795-102.059-266.795-266.923v-320.001c0-164.352 102.059-266.411 266.795-266.411h320.129c164.352 0 266.411 102.059 266.283 266.539 0 18.005-14.635 32.64-32.64 32.64-18.048 0-32.64-14.635-32.64-32.64 0-129.451-71.296-201.131-201.131-201.131h-320.001c-129.835 0-201.515 71.68-201.515 201.131v320.001c0 129.835 71.68 201.515 201.643 201.515h320.001c129.877 0 201.131-71.253 201.131-201.515v-108.545c0.043-18.005 14.635-32.555 32.64-32.555v-0.768h0.384zM418.772 399.134l-29.184-29.184c-13.013-12.373-13.739-32.896-1.621-46.165l0.939-0.683c12.459-12.459 32.512-12.8 45.356-0.768l29.056 29.056c13.184 12.288 13.909 32.939 1.621 46.165-12.331 13.141-32.981 13.909-46.166 1.579zM646.093 328.397c-12.544-12.501-32.811-12.757-45.653-0.512l-1.621 1.579-203.948 203.905c-12.459 13.227-12.715 33.792-0.555 47.275 12.459 12.757 32.854 13.013 45.612 0.555 0.128-0.085 0.213-0.171 0.341-0.299l79.573-79.617 72.405 72.449c13.013 12.416 33.536 12.288 46.421-0.299 2.304-2.304 4.267-4.907 5.76-7.808 7.381-12.843 5.248-28.971-5.205-39.468l-72.107-72.064 78.421-78.464c13.227-12.501 13.739-33.365 1.195-46.549-0.098-0.145-0.222-0.265-0.35-0.384-0.098-0.094-0.201-0.188-0.29-0.299z" />
<glyph unicode="&#xe924;" glyph-name="Danger" data-tags="Danger" d="M927.974 226.743c0.725-1.237 1.323-2.56 1.877-3.883 5.077-12.501 7.979-25.685 8.704-39.168 1.664-32.213-9.301-63.104-30.933-87.083-21.589-23.979-51.243-38.101-83.456-39.723l-458.967-0.043c-17.664 0-32 14.336-32 32s14.336 32 32 32h457.345c13.483 0.768 27.392 7.339 37.589 18.645 10.155 11.264 15.275 25.728 14.507 40.875-0.299 5.717-1.451 11.349-3.456 16.725l-309.291 541.27c-15.317 27.691-49.92 37.675-77.312 22.528-9.344-5.163-16.981-12.8-22.144-22.144l-309.548-541.696c-4.992-13.568-4.651-28.288 0.981-41.643 5.888-13.952 16.853-24.789 30.891-30.464 5.931-2.432 12.075-3.797 18.432-4.139 17.621-0.853 31.232-15.915 30.336-33.579-0.853-17.067-15.019-30.379-31.957-30.379-0.555 0-1.067 0-1.621 0.043-13.568 0.683-26.795 3.627-39.339 8.747-29.781 12.117-53.12 35.157-65.664 64.853-12.587 29.696-12.8 62.549-0.64 92.416 0.512 1.323 1.109 2.603 1.835 3.84l310.485 543.36c10.752 19.456 27.095 35.755 46.935 46.805 58.325 32.256 131.925 11.093 164.139-47.189l310.272-542.976zM512.060 379.819c17.664 0 32 14.336 32 32v120.619c0 17.664-14.336 32-32 32s-32-14.336-32-32v-120.619c0-17.664 14.336-32 32-32zM512.060 233.86c17.664 0 32 14.336 32 32v0.427c0 17.664-14.336 31.787-32 31.787s-32-14.549-32-32.213c0-17.664 14.336-32 32-32z" />
<glyph unicode="&#xe925;" glyph-name="Delete" data-tags="Delete" d="M385.97 725.463h479.566c16.815 0 30.464-13.952 30.464-31.189 0-17.28-13.649-31.232-30.464-31.232h-707.116c-16.812 0-30.42 13.952-30.42 31.232 0 17.237 13.608 31.189 30.42 31.189h136.288c18.144 0 33.916 13.269 37.453 31.445l10.154 52.052c10.279 39.509 43.571 65.706 81.44 65.706h176.487c37.871 0 71.164-26.197 80.981-63.743 4.373-16.682-5.282-33.792-21.513-38.271-16.188-4.48-32.917 5.418-37.286 22.101-2.705 10.282-11.819 17.45-22.182 17.45h-176.487c-10.362 0-19.476-7.168-22.181-17.45l-9.696-50.047c-1.332-6.741-3.412-13.056-5.909-19.243zM347.934 85.474c-39.118 0.853-61.257 22.613-65.793 64.725-13.067 120.444-35.456 405.667-35.664 408.525-1.332 17.195-16.022 29.44-32.792 28.672-16.771-1.408-29.255-16.469-27.882-33.621 0.208-2.901 22.639-289.105 35.789-410.531 7.865-72.661 55.764-118.699 125.094-120.192h0.624c16.521 0 30.088 13.525 30.462 30.549 0.333 17.237-13.025 31.531-29.838 31.872zM810.308 587.383c-16.563 0.896-31.462-11.434-32.794-28.629-0.209-2.859-22.763-288.849-35.703-408.355-4.621-43.008-27.051-64.299-68.625-65.109l-16.525-0.299c-52.787-0.947-77.355-1.391-136.324-1.195h-0.085c-16.811 0-30.421-13.867-30.46-31.061-0.085-17.28 13.521-31.275 30.336-31.36 10.402-0.043 20.766-0.043 31.168-0.043 43.486 0 60.855 0.35 93.466 1.003 8.555 0.171 18.155 0.363 29.547 0.576 72.162 1.323 120.060 46.421 128.051 120.661 13.026 120.358 35.622 407.288 35.831 410.147 1.37 17.195-11.115 32.256-27.883 33.664z" />
<glyph unicode="&#xe926;" glyph-name="Discount" data-tags="Discount" d="M168.373 402.15c-25.173 25.182-25.173 66.155 0 91.721l30.72 30.771c24.32 24.287 37.547 56.298 37.547 90.485v43.961c0 35.425 29.013 64.448 64.427 64.448h43.947c34.133 0 66.133 13.231 90.455 37.559l30.72 30.73c24.747 24.755 65.28 25.181 90.88 0.811 0.422-0.384 0.427-0.384 0.849-0.809l0.004-0.001c5.547-5.122 13.227-8.536 21.76-8.536 17.493 0 32 14.085 32 32.011 0 8.536-3.413 16.218-8.96 22.194-1.707 1.707-3.413 2.988-5.12 4.268-50.347 45.668-128.427 43.534-176.642-4.738l-30.72-30.687c-11.947-11.993-28.16-18.779-45.227-18.779h-43.947c-70.827 0-128.427-57.619-128.427-128.469v-43.961c0-17.072-6.827-33.291-18.773-45.242l-31.147-31.157c-49.92-50.362-49.92-131.927 0.427-181.86 6.4-6.362 14.507-9.348 22.613-9.348s16.64 3.413 22.613 9.348c12.373 12.847 12.373 32.905 0 45.282zM870.178 569.757l30.635-30.644c24.277-24.113 37.717-56.34 37.845-90.695 0.085-34.359-13.184-66.667-37.376-90.995l-31.147-31.159c-11.861-11.951-18.688-28.467-18.731-45.41v-43.836c0-70.848-57.643-128.508-128.469-128.508-17.664 0-32 14.34-32 32.009s14.336 32.013 32 32.013c35.584 0 64.469 28.937 64.469 64.486v43.878c0.043 34.227 13.312 66.411 37.419 90.569l30.72 30.771c12.501 12.548 19.157 28.766 19.115 46.012-0.043 17.199-6.827 33.374-19.029 45.538l-30.763 30.771c-24.149 24.33-37.419 56.468-37.461 90.613v43.918c0 35.596-28.885 64.491-64.469 64.491-17.664 0-32 14.341-32 32.010s14.336 32.011 32 32.011c70.827 0 128.469-57.619 128.469-128.512v-43.875c0.043-17.115 6.699-33.291 18.773-45.455zM511.97 85.269c17.493-0.683 33.536 6.699 45.739 19.034 12.459 12.463 32.725 12.591 45.269 0.128 12.501-12.506 12.544-32.777 0.085-45.325-25.045-25.182-58.069-37.773-91.093-37.773-32.768 0-65.579 12.42-90.583 37.303l-31.147 31.155c-12.075 11.994-28.245 18.697-45.44 18.739h-43.776c-70.827 0-128.469 57.617-128.469 128.465 0 17.673 14.336 32.013 32 32.013s32-14.34 32-32.013c0-35.55 28.885-64.444 64.469-64.444h43.861c34.176-0.043 66.347-13.359 90.541-37.389l30.763-30.818c12.459-12.42 28.629-19.076 45.781-19.076zM379.71 361.015c-12.501-12.506-12.501-32.781 0-45.282 6.229-6.234 14.421-9.348 22.613-9.348s16.384 3.115 22.656 9.348l219.266 219.376c12.501 12.505 12.501 32.779 0 45.284s-32.725 12.506-45.227 0l-219.309-219.378zM401.943 594.124c20.437 0 37.037-16.603 37.037-37.047s-16.599-37.004-37.037-37.004c-20.437 0-37.035 16.561-37.035 37.004s16.597 37.047 37.035 37.047zM621.636 375.305c20.437 0 37.035-16.602 37.035-37.047 0-20.442-16.597-37.047-37.035-37.047-20.48 0-37.035 16.606-37.035 37.047 0 20.446 16.555 37.047 37.035 37.047z" />
<glyph unicode="&#xe927;" glyph-name="Discovery" data-tags="Discovery" d="M95.646 541.121c43.566 195.059 216.547 333.692 416.183 333.545 31.228 0.040 62.357-3.479 92.787-10.488 110.861-24.403 207.386-92.155 268.096-188.182s80.567-212.363 55.155-323.126c-2.21-12.284-11.093-22.302-23.019-25.958-11.921-3.657-24.883-0.337-33.591 8.602-8.704 8.939-11.691 21.999-7.74 33.839 39.927 178.534-60.693 358.556-233.557 417.873s-362.623-21.067-440.473-186.587c-77.85-165.519-18.863-363.177 136.922-458.806 155.784-95.633 358.485-58.611 470.515 85.926 12.032 11.157 30.387 11.874 43.26 1.698 12.868-10.176 16.422-28.22 8.371-42.526-122.167-158.084-337.574-210.065-518.26-125.065s-278.214 284.194-234.648 479.255zM517.641 344.849c-7.343 15.479-1.766 34.014 12.898 42.859l25.067 12.361 41.903 134.101-130.948-41.203-59.862-191.415c-5.384-17.365-23.799-27.089-41.155-21.726-8.418 2.586-15.451 8.439-19.528 16.252s-4.86 16.934-2.172 25.331l65.1 208.265c3.373 10.205 11.452 18.154 21.7 21.353l208.021 65.178c6.289 2.259 13.163 2.259 19.452 0 8.393-2.502 15.424-8.281 19.503-16.034 4.083-7.753 4.877-16.826 2.197-25.17l-66.594-208.642c-2.654-8.653-8.742-15.829-16.836-19.853l-37.414-18.731c-16.111-5.79-33.984 1.591-41.331 17.075z" />
<glyph unicode="&#xe928;" glyph-name="Document" data-tags="Document" d="M347.216 874.667h329.196c137.105 0 219.217-83.261 219.588-222.281v-408.772c0-139.021-81.741-222.281-219.217-222.281h-121.869c-15.629 1.749-27.46 15.138-27.46 31.083s11.831 29.333 27.46 31.083h121.498c104.777 0 157.538 53.871 157.538 160.115v408.772c0 106.243-52.762 160.118-157.538 160.118h-329.196c-104.778 0-157.91-53.875-157.91-160.118v-408.772c0-106.244 53.132-160.115 157.91-160.115 15.629-1.749 27.459-15.138 27.459-31.083s-11.83-29.333-27.459-31.083c-137.103 0-219.216 83.26-219.216 222.281v408.772c0 139.397 82.113 222.281 219.216 222.281zM357.991 597.38h117.038c15.629 1.748 27.46 15.138 27.46 31.082s-11.831 29.334-27.46 31.082h-117.038c-15.629-1.748-27.459-15.138-27.459-31.082s11.83-29.334 27.459-31.082zM665.267 416.917h-307.648c-15.629 1.749-27.459 15.138-27.459 31.083s11.83 29.333 27.459 31.083h307.648c11.755 1.314 23.219-4.305 29.504-14.468 6.285-10.159 6.285-23.070 0-33.229-6.285-10.163-17.749-15.782-29.504-14.468zM665.267 236.454h-307.648c-16.826 0-30.467 13.833-30.467 30.895s13.641 30.895 30.467 30.895h307.648c16.823 0 30.464-13.833 30.464-30.895s-13.641-30.895-30.464-30.895z" />
<glyph unicode="&#xe929;" glyph-name="Download" data-tags="Download" d="M364.707 457.758c12.885 12.74 33.664 12.698 46.464-0.085l67.967-67.93v430.898c0 18.044 14.72 32.692 32.853 32.692s32.896-14.648 32.896-32.692v-510.079c0-13.248-8.021-25.178-20.352-30.229-12.288-5.056-26.453-2.21-35.84 7.13l-124.073 124.062c-6.357 6.366-9.557 14.733-9.557 23.095s3.2 16.772 9.642 23.138zM581.982 380.113c-6.528 6.37-9.771 14.775-9.771 23.223 0 8.282 3.157 16.602 9.515 23.014l31.019 31.249c12.757 12.821 33.536 12.949 46.464 0.252 12.928-12.651 13.013-33.327 0.256-46.234l-31.061-31.292c-12.715-12.821-33.536-12.949-46.421-0.213zM307.923 76.843c0 18.85-14.72 34.15-32.853 34.15-68.394 0-124.031 57.839-124.031 128.939v216.179c0 70.788 55.466 128.451 123.604 128.451h40.149c18.133 0 32.853 15.302 32.853 34.153s-14.72 34.153-32.853 34.153h-40.149c-104.404 0-189.31-88.265-189.31-196.756v-216.179c0-108.757 85.119-197.244 189.737-197.244 18.133 0 32.853 15.305 32.853 34.155zM938.667 455.646v-216.179c0-108.493-84.907-196.8-189.312-196.8h-324.859c-18.133 0-32.81 15.347-32.81 34.15 0 18.897 14.677 34.197 32.81 34.197h324.859c68.139 0 123.605 57.617 123.605 128.452v216.179c0 71.1-55.637 128.938-124.032 128.938h-39.718c-18.133 0-32.811 15.258-32.811 34.153 0 18.85 14.677 34.153 32.811 34.153h39.718c104.619 0 189.739-88.486 189.739-197.243z" />
<glyph unicode="&#xe92a;" glyph-name="Edit" data-tags="Edit" d="M751.885 751.45c26.901-21.324 45.295-49.369 51.725-79.026 7.181-33.107-0.755-66.706-22.298-94.482l-367.394-473.797c-18.572-23.966-46.495-37.943-76.679-38.349l-142.145-1.792c-15.469 0-28.899 10.752-32.4 25.984l-32.090 139.503c-6.826 29.705-0.089 60.48 18.527 84.45l48.224 62.225c11.302 14.605 32.223 17.203 46.672 5.687 14.449-11.422 16.976-32.567 5.629-47.172l-48.224-62.225c-6.117-7.885-8.333-17.967-6.072-27.733l26.018-113.161 115.019 1.434c9.884 0.132 19.059 4.702 25.175 12.587l367.396 473.799c9.395 12.096 12.629 25.088 9.707 38.706-3.149 14.381-12.988 28.761-27.793 40.454l-61.606 48.876c-23.846 18.816-57.489 28.492-80.448-1.21l-48.533-62.54 77.035-62.45c14.315-11.558 16.619-32.748 5.141-47.174-6.562-8.332-16.222-12.633-25.975-12.633-7.266 0-14.626 2.419-20.745 7.392l-76.454 61.957-125.702-162.127c-11.347-14.605-32.223-17.25-46.717-5.692-14.405 11.426-16.931 32.572-5.629 47.172l215.236 277.579c41.749 53.938 114.884 59.225 173.79 12.588l61.611-48.831zM580.109 131.2h282.65c18.351 0 33.242-15.053 33.242-33.6s-14.891-33.6-33.242-33.6h-282.65c-18.394 0-33.242 15.053-33.242 33.6s14.848 33.6 33.242 33.6z" />
<glyph unicode="&#xe92b;" glyph-name="Edit-Square" data-tags="Edit Square" d="M313.73 439.714l-3.974-158.293c-0.171-8.448 3.034-16.597 8.932-22.656 5.94-6.101 14.060-9.515 22.522-9.515h157.269c32.695 0 63.467 12.715 86.63 35.84l315.051 314.543c24.875 24.79 38.507 57.772 38.507 92.844 0 34.987-13.632 68.012-38.507 92.801l-51.068 50.988c-51.285 51.2-134.665 51.2-185.907 0l-313.599-313.092c-22.309-22.272-35.044-51.925-35.856-83.46zM376.638 438.135c0.428 15.322 6.582 29.786 17.479 40.623l243.258 242.903 79.915-79.873c6.157-6.101 14.191-9.173 22.268-9.173 8.034 0 16.111 3.072 22.263 9.173 12.267 12.331 12.267 32.171 0 44.459l-79.957 79.831 25.809 25.771c26.714 26.667 70.174 26.667 96.93 0l51.068-51.030c26.709-26.667 26.709-70.060 0-96.769l-315.055-314.544c-11.281-11.264-26.24-17.408-42.138-17.408h-124.96l3.12 126.037zM116.839 429.094c17.351 0 31.454 14.080 31.454 31.407v160.811c0 114.775 70.045 188.931 178.468 188.931h156.887c17.391 0 31.497 14.037 31.497 31.403 0 17.323-14.106 31.403-31.497 31.403h-156.887c-144.407 0-241.419-101.164-241.419-251.737v-160.811c0-17.327 14.103-31.407 31.497-31.407zM907.029 473.182c-17.395 0-31.454-14.037-31.454-31.407v-168.704c0-114.778-70.089-188.89-178.556-188.89h-370.268c-108.422 0-178.425 74.112-178.425 188.89 0 17.323-14.103 31.403-31.497 31.403-17.351 0-31.497-14.080-31.497-31.403 0-150.575 97.012-251.738 241.419-251.738h370.268c144.452 0 241.463 101.163 241.463 251.738v168.704c0 17.37-14.101 31.407-31.454 31.407z" />
<glyph unicode="&#xe92c;" glyph-name="Filter" data-tags="Filter" d="M85.348 694.884c0-87.35 71.98-158.449 160.524-158.449s160.524 71.099 160.524 158.449c0 87.4-71.98 158.449-160.524 158.449-12.198 0-24.294-1.338-36.040-4.063-20.279-4.608-32.878-24.625-28.16-44.592s24.897-32.552 45.226-27.746c6.124 1.387 12.549 2.081 18.974 2.081 47.033 0 85.231-37.705 85.231-84.13 0-46.375-38.199-84.13-85.231-84.13s-85.231 37.754-85.231 84.13c0 4.756 0.401 9.463 1.155 13.972 3.463 20.265-10.441 39.389-30.921 42.808-20.73 3.22-39.905-10.306-43.318-30.57-1.456-8.522-2.209-17.292-2.209-26.21zM592.358 657.74h308.651c20.783 0 37.649 16.647 37.649 37.16s-16.866 37.16-37.649 37.16h-308.651c-20.779 0-37.645-16.648-37.645-37.16s16.866-37.16 37.645-37.16zM431.68 163.968h-308.7c-20.781 0-37.647 16.644-37.647 37.158 0 20.51 16.866 37.158 37.647 37.158h308.7c20.783 0 37.645-16.649 37.645-37.158 0-20.514-16.862-37.158-37.645-37.158zM617.617 201.118c0-87.351 71.983-158.451 160.525-158.451 88.495 0 160.525 71.1 160.525 158.451 0 8.917-0.751 17.685-2.21 26.206-3.413 20.267-22.886 33.941-43.315 30.571-20.48-3.418-34.385-22.541-30.921-42.807 0.751-4.51 1.152-9.216 1.152-13.969 0-46.379-38.246-84.13-85.231-84.13-47.031 0-85.231 37.751-85.231 84.13 0 52.766 52.203 93.837 104.405 82.048 20.228-4.608 40.41 8.026 45.077 27.994 4.617 19.964-8.132 39.932-28.412 44.442-11.746 2.624-23.791 3.964-35.84 3.964-88.542 0-160.525-71.049-160.525-158.447z" />
<glyph unicode="&#xe92d;" glyph-name="Filter-2" data-tags="Filter 2" d="M372.474 199.552c0-18.88 14.762-34.249 32.938-34.249s32.937 15.369 32.937 34.249v169.967c0 8.708-3.157 17.062-8.917 23.458l-271.481 301.861c-4.309 4.798-6.741 11.151-6.741 17.725v67.525c0 14.26 11.221 25.943 24.96 25.943h131.795c18.176 0 32.938 15.371 32.938 34.295s-14.762 34.34-32.938 34.34h-131.795c-50.090 0-90.836-42.425-90.836-94.579v-67.525c0-24.122 8.704-47.045 24.533-64.681l262.608-291.91v-156.42zM379.275 40.934c5.589-12.348 17.493-19.601 29.909-19.601 4.651 0 9.386 1.011 13.866 3.166l184.361 88.337c11.558 5.538 19.025 17.493 19.025 30.72v217.156l284.966 288.265c17.323 17.448 27.264 41.796 27.264 66.76v65.353c0 51.597-40.789 93.568-90.88 93.568h-379.682c-18.176 0-32.939-15.25-32.939-33.929 0-18.767 14.763-33.973 32.939-33.973h379.682c13.781 0 24.96-11.559 24.96-25.667v-65.353c0-6.812-2.688-13.492-7.467-18.283l-294.861-298.328c-6.315-6.374-9.899-15.121-9.899-24.218v-209.685l-165.245-79.151c-16.512-7.91-23.637-28.083-16-45.137z" />
<glyph unicode="&#xe92e;" glyph-name="Folder" data-tags="Folder" d="M906.035 419.106c18.022 0 32.631 14.618 32.631 32.644v43.533c0 172.617-76.894 256.674-234.432 256.674h-116.279c-18.927-0.090-36.817 8.651-48.384 23.641l-37.513 49.909c-24.23 31.106-61.478 49.254-100.898 49.158h-81.77c-155.288 0-234.057-89.686-234.057-266.807v-320.094c0-164.361 102.025-266.432 266.69-266.432h319.58c164.288 0 266.688 102.071 266.688 266.432-1.796 16.781-15.949 29.508-32.819 29.508s-31.027-12.727-32.823-29.508c0-129.463-71.266-201.139-201.045-201.139h-319.955c-129.782 0-201.049 71.3-201.049 201.139v31.147h525.13c18.022 0 32.631 14.618 32.631 32.649s-14.609 32.644-32.631 32.644h-525.13v225.155c0 141.096 50.262 201.513 168.416 201.513h82.52c18.928-0.28 36.715-9.108 48.389-24.017l37.508-49.533c23.808-31.562 61.001-50.167 100.523-50.284h115.904c121.903 0 169.165-54.412 169.165-191.755v-43.533c0-8.721 3.49-17.084 9.694-23.215 6.199-6.135 14.596-9.532 23.317-9.429z" />
<glyph unicode="&#xe92f;" glyph-name="Game" data-tags="Game" d="M687.377 699.648c134.101 0.939 245.376-99.627 251.093-230.997 0.213-5.291 0.256-10.581 0.128-15.829v-183.765c1.451-63.872-22.357-125.099-66.987-171.733-44.629-46.677-104.747-73.088-169.259-74.496-5.248-0.128-10.539-0.043-15.872 0.171-58.795-1.067-117.888-1.536-176.725-1.536-58.496 0-116.738 0.469-173.954 1.493-131.627-6.528-244.395 97.792-250.24 230.912-0.213 5.291-0.256 10.539-0.171 15.787v183.893c-2.901 132.608 103.168 243.371 236.373 246.272 5.205 0.085 10.496 0 15.829-0.213l168.919 0.043v9.813c-0.341 28.8-24.363 52.437-53.547 52.437h-42.54c-22.059 0.939-43.051 8.235-59.008 23.936-15.915 15.573-24.789 36.48-25.045 58.752-0.171 16.427 13.013 29.909 29.44 30.080h0.341c16.256 0 29.568-13.141 29.739-29.483 0.043-6.4 2.603-12.416 7.211-16.853 4.523-4.437 10.453-6.869 16.725-6.869h43.351c61.397 0 112.043-49.877 112.896-111.659v-39.893c0-16.469-13.355-29.781-29.781-29.781h-199.98c-0.552 0.014-1.091 0.027-1.617 0.041-4.438 0.112-8.015 0.202-11.524 0.087-100.523-2.133-180.437-85.589-178.261-186.027v-185.173c-0.085-4.651-0.043-8.661 0.128-12.672 4.395-100.267 88.704-178.304 189.952-173.952 115.97-1.963 233.858-1.963 352.258 0.043 5.717-0.171 9.728-0.256 13.696-0.171 48.725 1.067 94.037 20.992 127.659 56.192 33.621 35.115 51.584 81.237 50.475 129.92v185.131c0.128 4.693 0.085 8.661-0.128 12.587-4.395 100.565-86.4 176.085-190.805 173.995-16.512-0.512-29.909 12.971-30.123 29.355-0.213 16.469 12.928 29.909 29.355 30.165zM420.092 288.772c-0.204-17.728-14.633-32.055-32.494-32.256h-0.378c-17.798 0.205-32.117 14.588-32.116 32.256v42.761h-43.073c-12.375-1.331-24.429 4.476-31.037 14.95-6.608 10.47-6.608 23.77 0 34.244s18.661 16.277 31.037 14.946h43.073v42.385c0 17.818 14.548 32.26 32.493 32.26s32.494-14.443 32.494-32.26v-42.385h43.072c12.378 1.331 24.431-4.471 31.040-14.946 6.605-10.475 6.605-23.774 0-34.244-6.609-10.475-18.662-16.282-31.040-14.95h-43.072v-42.761zM617.698 454.938c2.842 3.081 6.323 5.513 10.202 7.13 7.744 3.166 16.435 3.166 24.179 0 4.045-1.724 7.753-4.139 10.961-7.13 5.99-5.986 9.382-14.063 9.442-22.502 0.051-4.233-0.717-8.435-2.266-12.378-1.493-4.032-3.955-7.637-7.177-10.505-12.698-12.002-32.649-12.002-45.342 0-6.31 5.884-9.89 14.097-9.89 22.694 0 8.593 3.58 16.806 9.89 22.69zM689.865 312.030c-12.42-12.493-12.331-32.606 0.201-44.988 12.527-12.386 32.785-12.386 45.316 0 12.531 12.382 12.621 32.495 0.201 44.988-3.123 2.918-6.694 5.325-10.581 7.125-12.092 4.838-25.924 2.031-35.136-7.125z" />
<glyph unicode="&#xe930;" glyph-name="Graph" data-tags="Graph" d="M938.185 536c-29.316 178.914-182.276 312.014-364.659 317.315-18.257 0.419-35.866-6.713-48.623-19.693-12.322-12.697-18.701-29.958-17.579-47.56l18.701-279.042c2.918-35.221 32.499-62.349 68.070-62.426h4.489l280.508 18.577c16.845 0.956 32.606 8.559 43.776 21.124 11.166 12.561 16.819 29.035 15.693 45.76v5.944h-0.375zM594.095 511.479l-18.701 274.212c146.743-5.915 269.623-112.381 295.471-256.006l-276.77-18.206zM716.77 320.495c5.257 17.801 23.846 28.19 41.89 23.407 8.849-2.099 16.469-7.667 21.12-15.437s5.935-17.079 3.567-25.805c-25.404-92.105-87.36-170.014-171.674-215.881-103.458-56.969-228.712-58.867-333.872-5.065s-176.344 156.207-189.743 272.964c-2.173 13.632-3.050 27.443-2.618 41.242-0.181 167.308 117.891 311.76 282.752 345.926 18.59 3.694 36.675-8.284 40.393-26.752s-8.338-36.435-26.929-40.129c-133.063-28.119-228.096-145.011-227.773-280.158-0.31-10.564 0.316-21.133 1.87-31.582 16.411-134.938 126.454-239.582 262.866-249.971s261.225 76.365 298.149 207.241z" />
<glyph unicode="&#xe931;" glyph-name="Heart" data-tags="Heart" d="M747.546 840.418c68.873-21.418 126.144-70.615 158.498-136.154 37.828-79.435 42.978-170.964 14.306-254.284-26.394-76.702-69.662-146.231-126.498-203.273-37.265-38.302-77.419-73.566-120.094-105.472l-2.257-1.916c-14.178-9.545-33.246-5.798-42.918 8.435-4.919 6.874-6.895 15.488-5.474 23.868 1.417 8.384 6.11 15.825 13.001 20.625 40.047 30.17 77.803 63.377 112.943 99.332 50.611 49.809 89.263 110.839 112.943 178.347 22.775 67.266 18.167 141.024-12.8 204.805-24.922 50.175-68.826 87.843-121.6 104.321-67.315 21.443-140.651 8.444-196.898-34.901-11.179-8.439-26.462-8.439-37.645 0-56.222 43.406-129.587 56.41-196.896 34.901-53.128-16.113-97.473-53.668-122.73-103.937-30.268-63.735-34.598-137.069-12.047-204.041 23.781-67.345 62.42-128.226 112.942-177.958 74.65-72.922 156.967-137.233 245.462-191.765 11.251-7.957 16.201-22.387 12.258-35.75s-15.885-22.622-29.577-22.933c-6.174-0.034-12.211 1.835-17.318 5.372-92.183 56.798-177.913 123.81-255.625 199.821-57.15 56.853-100.578 126.43-126.871 203.273-27.683 83.202-22 174.175 15.812 253.132 32.353 65.539 89.623 114.736 158.495 136.154 79.185 24.917 165.101 13.434 235.296-31.45 70.195 44.884 156.109 56.367 235.294 31.45zM716.676 546.631c-1.574 35.444-24.742 66.099-57.975 76.707-12.356 7.859-17.847 23.301-13.295 37.397s17.971 23.201 32.495 22.051c56.132-18.053 96.090-68.746 101.269-128.484 1.062-8.352-1.207-16.79-6.302-23.422-5.099-6.635-12.591-10.906-20.804-11.861-17.242-2.27-33.050 10.061-35.388 27.613z" />
<glyph unicode="&#xe932;" glyph-name="Hide" data-tags="Hide" d="M512.004 550.409c-57.387 0-104.063-45.905-104.063-102.438 0-16.674 4.523-32.55 12.203-46.959l139.604 137.427c-14.592 7.518-30.891 11.97-47.744 11.97zM827.098 801.658c12.203 12.012 31.957 12.012 44.16 0s12.203-31.459 0-43.471l-674.346-663.825c-6.101-6.003-14.080-9.028-22.059-9.028-8.021 0-16 3.025-22.101 9.028-12.203 12.015-12.203 31.462 0 43.43l221.696 218.278c-18.731 26.88-28.928 58.59-28.928 91.9 0 90.384 74.667 163.886 166.484 163.886 33.579 0 66.261-10.164 93.44-28.393l86.784 85.388c-122.368 78.374-271.572 71.654-388.138-19.194-61.568-47.671-114.432-117.223-153.387-201.729 17.323-37.76 37.461-72.58 59.904-103.659 9.984-13.82 6.699-33.011-7.339-42.842-5.504-3.866-11.819-5.713-18.091-5.713-9.771 0-19.371 4.454-25.472 12.937-27.392 37.926-51.584 80.725-71.85 127.223-3.371 7.727-3.371 16.546 0.043 24.273 43.562 99.291 104.917 181.529 177.536 237.768 140.715 109.58 325.546 114.998 471.722 15.162l89.941 88.58zM936.107 460.194c-22.741 51.618-49.877 98.325-80.768 138.688-10.411 13.566-29.952 16.296-43.691 6.090-13.824-10.249-16.555-29.485-6.187-43.051 25.472-33.306 48.256-71.57 67.84-113.946-80.043-173.466-214.315-276.578-361.301-276.578-33.28 0-66.389 5.333-98.388 15.834-16.427 5.252-34.048-3.315-39.467-19.443-5.461-16.090 3.371-33.476 19.712-38.895 38.356-12.599 78.122-18.982 118.143-18.982 176.085 0 334.635 121.843 424.107 325.926 3.413 7.727 3.413 16.589 0 24.358zM614.003 429.756c-7.595-41.579-41.045-74.594-83.285-82.112-16.981-3.063-28.245-19.068-25.173-35.785 2.731-14.827 15.915-25.199 30.677-25.199 1.877 0 3.755 0.166 5.632 0.461 67.755 12.139 121.472 65.062 133.589 131.759 3.072 16.755-8.235 32.717-25.216 35.699-16.853 3.025-33.195-8.192-36.224-24.823z" />
<glyph unicode="&#xe933;" glyph-name="Home" data-tags="Home" d="M859.827 636.105c30.379-24.433 48.213-61.191 48.602-100.174l-0.371-340.219c0-92.412-74.914-167.33-167.326-167.33h-74.206c-44.727 0-81.045 36.151-81.25 80.883v153.6c0 11.883-9.634 21.517-21.521 21.517h-111.305c-5.769 0.004-11.302-2.317-15.347-6.43-4.045-4.117-6.268-9.69-6.17-15.458v-58.62c0-18.441-14.95-33.391-33.391-33.391s-33.391 14.95-33.391 33.391v58.62c0 23.518 9.342 46.071 25.972 62.699 16.629 16.631 39.185 25.971 62.699 25.971h111.305c48.828-0.201 88.303-39.842 88.303-88.67v-153.229c0-7.787 6.31-14.101 14.097-14.101h76.058c55.326 0 100.177 44.851 100.177 100.177v339.848c-0.273 18.827-8.99 36.535-23.744 48.232l-256.371 204.429c-32.329 26.615-78.976 26.615-111.305 0l-82.367-61.588c-15.266-10.962-36.527-7.474-47.49 7.791s-7.474 36.527 7.791 47.49l81.252 58.991c56.335 45.285 136.591 45.285 192.928 0l256.371-204.429zM273.994 95.535h170.665v-0.738c18.445 0 33.391-14.95 33.391-33.395 0-18.441-14.946-33.391-33.391-33.391h-170.665c-92.328 0.205-167.124 74.999-167.328 167.33v339.848c0.591 39.272 19.024 76.139 50.087 100.174l30.794 23.003c14.501 6.836 31.814 2.402 41.243-10.564s8.314-30.802-2.658-42.491l-30.052-22.261c-14.24-11.83-22.523-29.348-22.632-47.861v-339.477c0.406-55.3 45.244-99.972 100.545-100.177z" />
<glyph unicode="&#xe934;" glyph-name="Image" data-tags="Image" d="M695.467 23.509h-141.653c-17.664 0-32 14.336-32 32s14.336 32 32 32h141.653c107.819 0 177.493 73.685 177.493 187.691v347.776c0 114.048-69.675 187.691-177.493 187.691h-369.067c-107.563 0-177.067-73.643-177.067-187.691v-347.776c0-114.005 69.504-187.691 177.067-187.691h30.763c17.664 0 32-14.336 32-32s-14.336-32-32-32h-30.763c-144.171 0-241.067 101.163-241.067 251.691v347.776c0 150.528 96.896 251.691 241.067 251.691h369.067c144.469 0 241.493-101.163 241.493-251.691v-347.776c0-150.528-97.024-251.691-241.493-251.691zM225.344 226.884c-7.893 0-15.829 2.901-22.016 8.747-12.8 12.16-13.355 32.427-1.195 45.269l65.237 68.864c17.408 18.432 40.96 28.629 66.347 28.715 24.491-1.621 49.024-9.941 66.603-28.203l37.589-38.315c5.845-5.973 13.525-9.301 22.101-8.704 8.363 0.384 15.915 4.139 21.248 10.624l95.104 115.712c18.773 22.827 46.507 36.651 76.075 37.888 29.483 0.896 58.325-10.325 78.891-31.531l88.619-91.349c12.288-12.715 11.989-32.981-0.725-45.269-12.672-12.331-32.939-11.947-45.227 0.683l-88.619 91.349c-8.021 8.277-18.517 12.928-30.336 12.16-11.52-0.469-21.888-5.675-29.227-14.592l-95.104-115.712c-16.768-20.395-41.515-32.768-67.883-33.92-26.411-0.555-52.096 9.003-70.613 27.819l-37.803 38.571c-5.547 5.717-12.587 10.752-20.437 8.789-7.723-0.043-14.848-3.157-20.139-8.704l-65.28-68.907c-6.272-6.656-14.72-9.984-23.211-9.984zM365.239 463.462c-58.923 0-106.837 47.915-106.837 106.837s47.915 106.837 106.837 106.837c58.88 0 106.795-47.915 106.795-106.837s-47.915-106.837-106.795-106.837zM365.239 613.137c-23.637 0-42.837-19.2-42.837-42.837s19.2-42.837 42.837-42.837c23.595 0 42.795 19.2 42.795 42.837s-19.2 42.837-42.795 42.837z" />
<glyph unicode="&#xe935;" glyph-name="Image-2" data-tags="Image 2" d="M326.029 21.333h371.925c143.957 0 240.725 101.035 240.725 251.435l-0.043 60.373c0 9.045-4.096 17.579-11.179 23.253-9.353 7.454-18.953 15.787-28.8 24.329l-0.674 0.585c-52.685 45.525-118.174 102.114-200.457 82.948-59.627-13.841-90.219-58.978-117.193-98.778l-0.141-0.209-0.055-0.081c-17.899-26.466-34.786-51.43-58.355-65.967-23.168-14.421-50.731-4.139-90.155 13.099l-6.698 2.987c-71.936 31.317-130.944 22.315-180.48-27.605-11.563-11.648-11.477-30.549 0.171-42.112 11.648-11.648 30.507-11.477 42.069 0.171 31.872 32.128 65.067 36.48 114.475 14.891l6.636-2.889c39.674-17.318 93.917-40.998 145.3-9.186 34.432 21.333 55.765 52.821 76.373 83.285l0.017 0.021c23.885 35.277 44.535 65.771 81.519 74.347 52.919 12.237 101.325-29.606 148.233-70.161l0.077-0.068c0.687-0.597 1.378-1.19 2.061-1.788 5.995-5.197 11.917-10.325 17.737-15.151v-46.293c0-116.608-71.125-191.872-181.163-191.872h-371.925c-110.037 0-181.162 75.264-181.162 191.872v350.464c0 116.608 71.125 191.872 181.162 191.872h371.968c110.037 0 181.12-75.264 181.12-191.872v-101.12c0-16.427 13.355-29.781 29.781-29.781s29.781 13.355 29.781 29.781v101.12c0 150.4-96.725 251.435-240.683 251.435h-371.968c-143.957 0-240.682-101.035-240.682-251.435v-350.464c0-150.4 96.725-251.435 240.682-251.435zM377.767 476.198c-60.203 0-109.141 48.981-109.141 109.184 0 60.16 48.939 109.141 109.141 109.141s109.141-48.981 109.141-109.141c0-60.203-48.939-109.184-109.141-109.184zM377.767 634.961c-27.35 0-49.621-22.229-49.621-49.579 0-27.392 22.272-49.621 49.621-49.621 27.392 0 49.621 22.229 49.621 49.621 0 27.349-22.229 49.579-49.621 49.579z" />
<glyph unicode="&#xe936;" glyph-name="Info-Circle" data-tags="Info Circle" d="M85.328 448.009c0 235.306 191.403 426.666 426.668 426.666s426.667-191.36 426.667-426.666c0-235.264-191.403-426.667-426.667-426.667-133.42 0-256.726 60.715-338.22 166.485-10.453 13.611-7.936 33.109 5.675 43.52 13.525 10.496 32.981 7.893 43.477-5.632 69.675-90.453 175.019-142.336 289.068-142.336 201.045 0 364.629 163.541 364.629 364.629 0 201.044-163.584 364.628-364.629 364.628s-364.63-163.584-364.63-364.628c0-18.688 1.408-37.248 4.181-55.424 2.56-16.896-9.045-32.725-25.984-35.328-17.024-2.816-32.768 9.003-35.328 25.941-3.243 21.248-4.907 43.051-4.907 64.811zM511.996 641.966c-17.664 0-32-14.336-32-32v-188.586c0-17.664 14.336-32 32-32s32 14.336 32 32v188.586c0 17.664-14.336 32-32 32zM512.431 318.050h-0.427c-17.664 0-31.787-14.336-31.787-32s14.549-32 32.213-32c17.664 0 32 14.336 32 32s-14.336 32-32 32z" />
<glyph unicode="&#xe937;" glyph-name="Info-Square" data-tags="Info Square" d="M671.881 874.674h-319.702c-164.011 0-266.837-102.101-266.837-266.795v-99.071c-0.043-18.005 14.549-32.64 32.555-32.64h0.469c17.792 0 32.256 14.421 32.256 32.256v99.455c0 129.835 71.68 201.515 201.515 201.515h319.744c130.261 0 201.515-71.68 201.515-201.515v-319.999c0-129.835-71.68-201.131-201.515-201.131h-319.702c-130.219 0-201.515 71.68-201.515 201.131 0 18.005-14.635 32.64-32.64 32.64-18.048 0-32.64-14.635-32.64-32.64-0.043-164.48 102.016-266.539 266.368-266.539h320.128c164.736 0 266.795 102.059 266.795 266.411v319.999c0 164.821-102.059 266.923-266.795 266.923zM511.774 254.050c-17.664 0-32 14.336-32 32v188.587c0 17.664 14.336 32 32 32s32-14.336 32-32v-188.587c0-17.664-14.336-32-32-32zM511.787 577.966h0.427c17.664 0 32 14.336 32 32s-14.336 32-32 32c-17.664 0-32.213-14.336-32.213-32s14.123-32 31.787-32z" />
<glyph unicode="&#xe938;" glyph-name="Location" data-tags="Location" d="M511.996 874.667h1.425c199.953-0.786 362.027-163.924 361.242-363.618v-3.968c-2.701-142.707-88.495-261.133-159.979-335.33-20.343-21.214-41.997-41.57-64.329-60.578-13.376-11.413-33.455-9.843-44.881 3.516-11.426 13.397-9.818 33.451 3.558 44.864 20.681 17.621 40.798 36.557 59.721 56.273 63.616 66.005 139.895 170.364 142.217 292.416 0.636 167.666-132.928 302.181-297.809 302.854h-1.165c-164.321 0-298.335-133.204-298.971-297.427 2.81-81.122 30.234-158.238 79.351-222.933 57.322-76.331 144.279-157.15 226.929-210.957 14.758-9.579 18.918-29.261 9.289-44.002-6.067-9.353-16.294-14.443-26.714-14.443-5.956 0-11.951 1.647-17.344 5.163-88.493 57.587-181.632 144.171-243.037 225.924-56.985 75.098-88.868 164.71-92.165 259.038 0.787 201.679 163.348 363.209 362.662 363.209zM437.555 507.132c0-40.9 33.344-74.236 74.33-74.236s74.33 33.335 74.33 74.236c0 40.933-33.344 74.271-74.33 74.271-17.57 0-31.846 14.219-31.846 31.767 0 17.586 14.276 31.805 31.846 31.805 76.092 0 138.022-61.813 138.022-137.843 0-75.994-61.931-137.809-138.022-137.809s-138.022 61.815-138.022 137.809c0 17.583 14.274 31.803 31.846 31.803s31.847-14.22 31.847-31.803z" />
<glyph unicode="&#xe939;" glyph-name="Lock" data-tags="Lock" d="M512.435 810.667h-0.738c-90.678 0-164.53-72.277-164.963-161.451v-57.301h330.489v56.576c0 89.429-73.937 162.176-164.787 162.176zM742.272 648.491v-68.139c76.8-26.496 132.395-97.707 132.395-182.229v-182.997c0-106.88-88.38-193.792-197.009-193.792h-146.795c-17.954 0-32.525 14.336-32.525 32s14.571 32 32.525 32h145.536c72.768 0 131.917 58.197 131.917 129.792 0 1.562 0.41 2.974 0.815 4.386 0.175 0.597 0.346 1.195 0.486 1.801v176.811c0 71.595-59.191 129.792-131.959 129.792h-331.314c-72.768 0-131.962-58.197-131.962-129.792v-176.811c0.139-0.653 0.317-1.297 0.496-1.937 0.381-1.37 0.762-2.739 0.762-4.25 0-71.595 59.194-129.792 131.962-129.792 17.953 0 32.524-14.336 32.524-32s-14.571-32-32.524-32c-0.152 0-0.293 0.021-0.434 0.043s-0.282 0.043-0.433 0.043c-0.065 0-0.13-0.021-0.195-0.043s-0.13-0.043-0.195-0.043c-108.631 0-197.010 86.912-197.010 193.792v182.997c0 84.523 55.551 155.733 132.352 182.229v68.139c0.564 125.355 103.6 226.176 229.879 226.176h0.998c126.583 0 229.709-101.461 229.709-226.176zM544.516 354.014v-94.763c0-17.664-14.571-32-32.525-32s-32.525 14.336-32.525 32v94.763c0 17.664 14.571 32 32.525 32s32.525-14.336 32.525-32z" />
<glyph unicode="&#xe93a;" glyph-name="Login" data-tags="Login" d="M504.354 874.667h216.179c108.493 0 196.8-84.906 196.8-189.31v-324.861c0-18.133-15.347-32.811-34.15-32.811-18.897 0-34.197 14.677-34.197 32.811v324.861c0 68.138-57.617 123.604-128.452 123.604h-216.179c-71.1 0-128.938-55.637-128.938-124.031v-39.722c0-18.133-15.258-32.81-34.153-32.81-18.85 0-34.153 14.677-34.153 32.81v39.722c0 104.618 88.486 189.737 197.243 189.737zM579.887 517.982c-6.37-6.528-14.775-9.771-23.223-9.771-8.282 0-16.602 3.157-23.014 9.515l-31.249 31.018c-12.821 12.757-12.949 33.536-0.252 46.464 12.651 12.928 33.327 13.013 46.234 0.256l31.292-31.061c12.821-12.714 12.949-33.535 0.213-46.42zM502.242 300.706c-12.74 12.885-12.698 33.664 0.085 46.464l67.93 67.968h-430.898c-18.044 0-32.692 14.72-32.692 32.853s14.648 32.896 32.692 32.896h510.079c13.248 0 25.178-8.021 30.229-20.352 5.056-12.288 2.21-26.453-7.13-35.84l-124.062-124.075c-6.366-6.357-14.733-9.557-23.095-9.557s-16.772 3.2-23.138 9.643zM883.157 243.921c-18.85 0-34.15-14.716-34.15-32.849 0-68.395-57.839-124.032-128.939-124.032h-216.179c-70.788 0-128.451 55.467-128.451 123.605v40.145c0 18.133-15.302 32.853-34.153 32.853s-34.153-14.72-34.153-32.853v-40.145c0-104.405 88.265-189.312 196.756-189.312h216.179c108.757 0 197.244 85.12 197.244 189.739 0 18.133-15.305 32.849-34.155 32.849z" />
<glyph unicode="&#xe93b;" glyph-name="Logout" data-tags="Logout" d="M149.335 364.847c0-17.229-14.336-31.211-31.997-31.211s-31.997 13.982-31.997 31.211v308.673c0 99.148 82.693 179.813 184.376 179.813h202.496c101.888 0 184.789-80.867 184.789-180.259v-37.738c0-17.187-14.336-31.171-31.996-31.171s-31.996 13.984-31.996 31.171v37.738c0 65.018-54.187 117.835-120.798 117.835h-202.496c-66.404 0-120.383-52.695-120.383-117.389v-308.673zM593.003 260.625c0 17.225 14.336 31.211 31.996 31.211s31.996-13.986 31.996-31.211v-38.144c0-99.149-82.692-179.814-184.375-179.814h-202.535c-101.85 0-184.75 80.866-184.75 180.258 0 17.229 14.336 31.172 31.997 31.172s31.997-13.943 31.997-31.172c0-65.015 54.187-117.833 120.756-117.833h202.535c66.402 0 120.384 52.655 120.384 117.389v38.144zM936.247 459.908c-4.945 11.716-16.623 19.337-29.585 19.337h-499.234c-17.661 0-32.038-14.025-32.038-31.253s14.378-31.211 32.038-31.211h421.777l-66.53-64.614c-12.548-12.16-12.548-31.902-0.085-44.143 6.234-6.118 14.464-9.199 22.647-9.199 8.188 0 16.333 3.081 22.609 9.118l121.421 117.918c9.139 8.917 11.925 22.374 6.98 34.048zM815.863 505.143c-8.145 0-16.29 3.038-22.519 9.037l-30.626 29.551c-12.553 12.12-12.634 31.901-0.209 44.102 12.467 12.323 32.661 12.404 45.252 0.243l30.583-29.51c12.591-12.16 12.676-31.903 0.252-44.144-6.276-6.161-14.502-9.28-22.733-9.28z" />
<glyph unicode="&#xe93c;" glyph-name="Message" data-tags="Message" d="M938.667 520.239c0-16.798-13.517-30.417-30.195-30.417l-0.375 0.759c-8.009 0-15.689 3.204-21.35 8.909s-8.841 13.44-8.841 21.508v61.592c-1.024 103.509-84.070 187.168-186.82 188.198h-358.168c-102.751-1.030-185.798-84.689-186.82-188.198v-269.182c1.022-103.509 84.069-187.166 186.82-188.194h358.168c102.75 1.028 185.796 84.685 186.82 188.194 1.724 15.59 14.81 27.383 30.379 27.383 15.573 0 28.655-11.793 30.383-27.383-0.414-137.57-111.019-248.99-247.582-249.408h-358.168c-136.65 0.209-247.376 111.753-247.584 249.408v269.182c0 137.745 110.847 249.41 247.584 249.41h358.168c136.563-0.418 247.168-111.838 247.582-249.41v-62.351zM543.514 454.084l175.497 141.433h0.38c13.069 10.464 32.051 8.433 42.645-4.562 5.047-6.336 7.369-14.443 6.447-22.513s-5.009-15.434-11.354-20.45l-175.497-141.814c-44.621-36.173-108.228-36.173-152.853 0l-175.873 141.814c-12.901 10.673-14.917 29.798-4.529 42.963 4.966 6.309 12.239 10.345 20.186 11.203s15.904-1.535 22.084-6.641l177.385-141.433c22.157-17.515 53.325-17.515 75.482 0z" />
<glyph unicode="&#xe93d;" glyph-name="More-Circle" data-tags="More Circle" d="M85.341 448.009c0 235.306 191.403 426.666 426.668 426.666s426.667-191.36 426.667-426.666c0-235.264-191.403-426.667-426.667-426.667-133.462 0-256.726 60.715-338.22 166.485-10.453 13.611-7.936 33.109 5.632 43.52 13.568 10.496 33.024 7.893 43.52-5.632 69.632-90.453 175.019-142.336 289.068-142.336 201.045 0 364.587 163.541 364.587 364.629 0 201.044-163.541 364.628-364.587 364.628s-364.63-163.584-364.63-364.628c0-18.688 1.408-37.248 4.181-55.424 2.56-16.896-9.088-32.725-25.984-35.328-17.024-2.816-32.768 9.003-35.371 25.941-3.243 21.248-4.864 43.051-4.864 64.811zM320.87 499.038c28.203 0 51.115-22.912 51.115-51.029 0-28.16-22.912-51.072-51.115-51.072-28.16 0-51.115 22.912-51.115 51.072 0 28.117 22.955 51.029 51.115 51.029zM511.996 499.038c28.16 0 51.115-22.912 51.115-51.029 0-28.16-22.955-51.072-51.115-51.072-28.203 0-51.115 22.912-51.115 51.072 0 28.117 22.912 51.029 51.115 51.029zM754.214 448.009c0 28.117-22.912 51.029-51.115 51.029-28.16 0-51.115-22.912-51.115-51.029 0-28.16 22.955-51.072 51.115-51.072 28.203 0 51.115 22.912 51.115 51.072z" />
<glyph unicode="&#xe93e;" glyph-name="More-Square" data-tags="More Square" d="M352.163 874.674h319.7c164.736 0 266.795-102.101 266.795-266.923v-319.999c0-164.352-102.059-266.411-266.795-266.411h-320.127c-164.352 0-266.411 102.059-266.368 266.539 0 18.005 14.635 32.64 32.64 32.64 18.048 0 32.64-14.635 32.64-32.64 0-129.451 71.296-201.131 201.515-201.131h319.7c129.835 0 201.515 71.296 201.515 201.131v319.999c0 129.835-71.253 201.515-201.515 201.515h-319.743c-129.835 0-201.515-71.68-201.515-201.515v-99.455c0-17.835-14.421-32.256-32.256-32.256h-0.469c-18.005 0-32.597 14.635-32.555 32.64v99.071c0 164.693 102.827 266.795 266.837 266.795zM320.876 499.038c28.203 0 51.115-22.912 51.115-51.029 0-28.16-22.912-51.072-51.115-51.072-28.16 0-51.115 22.912-51.115 51.072 0 28.117 22.955 51.029 51.115 51.029zM512 499.038c28.203 0 51.115-22.912 51.115-51.029 0-28.16-22.912-51.072-51.115-51.072-28.16 0-51.115 22.912-51.115 51.072 0 28.117 22.955 51.029 51.115 51.029zM754.219 448.009c0 28.117-22.912 51.029-51.115 51.029-28.16 0-51.115-22.912-51.115-51.029 0-28.16 22.955-51.072 51.115-51.072 28.203 0 51.115 22.912 51.115 51.072z" />
<glyph unicode="&#xe93f;" glyph-name="Notification" data-tags="Notification" d="M845.897 477.47c17.323-26.074 27.26-56.286 28.77-87.471l-1.135-7.885c1.306-42.679-12.941-84.399-40.124-117.508-34.718-37.461-82.18-60.86-133.248-65.698-125.794-13.807-252.745-13.807-378.539 0-50.323 5.167-96.957 28.561-130.975 65.698-27.633 32.636-42.305 74.155-41.261 116.757v5.257c2.081 32.119 12.8 63.104 31.040 89.724l3.028 3.755c18.97 21.35 32.015 47.223 37.854 75.085v77.337c5.368 13.563 19.23 21.879 33.834 20.299s26.332-12.665 28.625-27.057v-77.337c0.147-1.373 0.147-2.757 0-4.13-7.882-38.73-25.897-74.723-52.239-104.368-10.144-16.026-15.886-34.402-16.656-53.308v-8.26c-0.841-26.59 8.032-52.587 24.983-73.207 23.503-24.077 54.931-38.993 88.578-42.048 121.784-13.141 244.643-13.141 366.426 0 34.569 3.149 66.765 18.778 90.47 43.925 16.119 20.13 24.563 45.257 23.846 70.955v8.636c-0.777 18.97-6.374 37.436-16.277 53.683-27.435 29.308-46.511 65.331-55.266 104.368-0.145 1.373-0.145 2.757 0 4.13v77.712c-10.978 113.377-124.915 183.581-224.094 183.581-42.163 0.096-83.635-10.639-120.375-31.16-10.173-6.065-22.868-6.158-33.13-0.243s-16.465 16.9-16.188 28.669c0.277 11.768 6.991 22.455 17.521 27.887 45.525 25.507 96.86 39.075 149.143 39.419 130.974 0 277.85-92.354 294.502-240.645v-77.337c5.687-27.912 18.752-53.824 37.858-75.084 1.131-1.284 2.142-2.667 3.025-4.13zM522.731 88.286c22.246 3.315 42.24 15.296 55.539 33.284h0.38c11.499 13.79 32.090 15.723 45.99 4.318 13.905-11.405 15.855-31.825 4.356-45.615-28.348-36.762-72.201-58.509-118.861-58.94-46.528 0.546-90.22 22.281-118.485 58.94-11.498 13.79-9.549 34.21 4.353 45.615s34.494 9.472 45.993-4.318c5.047-6.694 11.042-12.638 17.792-17.643 18.039-13.325 40.7-18.953 62.942-15.642z" />
<glyph unicode="&#xe940;" glyph-name="Paper" data-tags="Paper" d="M865.775 637.589l-215.445 226.639c-6.042 6.357-14.336 9.923-23.014 9.923h-8.759c-0.384 0.038-0.742 0.147-1.097 0.254v0c-0.431 0.131-0.862 0.262-1.331 0.262-0.495 0-0.943-0.134-1.387-0.266-0.35-0.106-0.704-0.211-1.079-0.249h-269.341c-105.703 0-194.988-88.104-194.988-192.403v-177.454c0-17.783 14.292-32.218 31.902-32.218s31.903 14.434 31.903 32.218v177.454c0 69.375 60.061 127.968 131.183 127.968h239.905v-92.271c0-78.611 63.296-142.659 141.094-142.831h0.043c17.609 0 31.859 14.391 31.902 32.131 0.043 17.827-14.208 32.261-31.817 32.303-42.705 0.086-77.419 35.267-77.419 78.396v56.144l162.833-171.268v-380.809c0-72.299-59.213-135.744-126.716-135.744h-339.826c-73.546 0-131.183 59.622-131.183 135.744v107.648c0 17.783-14.292 32.218-31.903 32.218s-31.902-14.434-31.902-32.218v-107.648c0-112.247 85.669-200.179 194.988-200.179h339.826c103.279 0 190.519 91.669 190.519 200.179v393.739c0 8.334-3.191 16.323-8.892 22.337zM378.456 260.041h229.612c17.613 0 31.902 14.43 31.902 32.218 0 17.783-14.289 32.218-31.902 32.218h-229.612c-17.61 0-31.902-14.434-31.902-32.218 0-17.788 14.292-32.218 31.902-32.218zM521.207 472.768h-142.751c-17.61 0-31.902 14.434-31.902 32.218s14.292 32.218 31.902 32.218h142.751c17.613 0 31.906-14.435 31.906-32.218s-14.293-32.218-31.906-32.218z" />
<glyph unicode="&#xe941;" glyph-name="Paper-Download" data-tags="Paper Download" d="M650.287 864.228l215.488-226.639c5.7-6.014 8.892-14.004 8.892-22.337v-394.729c0-107.994-87.241-199.189-190.562-199.189h-339.784c-109.361 0-194.988 87.501-194.988 199.189v107.648c0 17.788 14.292 32.218 31.902 32.218s31.903-14.43 31.903-32.218v-107.648c0-76.804 56.361-134.754 131.183-134.754h339.784c68.736 0 126.758 61.73 126.758 134.754v381.799l-162.871 171.311v-56.187c0-43.129 34.752-78.31 77.457-78.396 17.609-0.043 31.859-14.476 31.817-32.303-0.043-17.741-14.293-32.131-31.902-32.131h-0.043c-77.798 0.172-141.137 64.22-141.137 142.831v92.271h-239.863c-71.121 0-131.183-58.592-131.183-127.968v-178.444c0-17.783-14.292-32.213-31.903-32.213s-31.902 14.43-31.902 32.213v178.444c0 104.299 89.284 192.403 194.988 192.403h269.298c0.38 0.038 0.747 0.146 1.109 0.253 0.444 0.132 0.887 0.263 1.357 0.263 0.499 0 0.943-0.134 1.387-0.266 0.354-0.106 0.704-0.211 1.084-0.249h8.717c8.678 0 16.973-3.566 23.014-9.923zM463.693 555.031c0 17.784 14.289 32.218 31.902 32.218 17.609 0 31.902-14.433 31.902-32.218v-204.302l66.185 67.14c12.467 12.629 32.627 12.629 45.133 0.085 12.506-12.54 12.548-32.947 0.128-45.577l-120.717-122.466c-0.021 0-0.043-0.013-0.064-0.021-0.021-0.013-0.043-0.021-0.064-0.021-2.893-2.923-6.34-5.286-10.167-6.916-3.87-1.634-8.038-2.492-12.335-2.492s-8.465 0.858-12.335 2.492c-3.831 1.63-7.317 4.036-10.253 6.959l-120.762 122.466c-12.421 12.629-12.378 33.037 0.085 45.577 12.506 12.544 32.71 12.544 45.131-0.085l66.231-67.183v204.345z" />
<glyph unicode="&#xe942;" glyph-name="Paper-Fail" data-tags="Paper Fail" d="M650.287 864.229l215.488-226.628c5.7-6.013 8.892-14.003 8.892-22.336v-399.521c0-107.17-85.457-194.411-190.562-194.411h-335.317c-111.828 0-199.454 85.393-199.454 194.411v107.644c0 17.783 14.292 32.218 31.902 32.218s31.903-14.434 31.903-32.218v-107.644c0-74.095 58.317-129.98 135.649-129.98h335.317c69.926 0 126.758 58.334 126.758 129.98v386.592l-162.871 171.259v-56.184c0-43.127 34.752-78.263 77.457-78.349 17.609-0.043 31.859-14.476 31.817-32.302-0.043-17.74-14.293-32.13-31.902-32.13h-0.043c-77.798 0.172-141.137 64.217-141.137 142.781v92.309h-244.372c-69.845 0-126.673-57.387-126.673-127.961v-183.245c0-17.783-14.292-32.213-31.903-32.213s-31.902 14.43-31.902 32.213v183.245c0 106.097 85.456 192.393 190.479 192.393h273.85c0.384 0.038 0.738 0.147 1.092 0.254 0.435 0.131 0.866 0.262 1.331 0.262 0.499 0 0.943-0.134 1.387-0.266 0.354-0.106 0.704-0.211 1.084-0.249h8.717c8.678 0 16.973-3.565 23.014-9.923zM430.515 299.157c-8.165 0-16.332 3.179-22.543 9.451-12.463 12.587-12.463 32.99 0 45.577l51.172 51.631-51.172 51.674c-12.463 12.587-12.463 32.947 0 45.53 12.463 12.587 32.667 12.587 45.13 0l51.132-51.674 51.17 51.674c12.463 12.587 32.623 12.587 45.090 0 12.463-12.582 12.463-32.943 0-45.53l-51.132-51.674 51.132-51.631c12.463-12.587 12.463-32.99 0-45.577-6.212-6.272-14.379-9.451-22.545-9.451s-16.337 3.179-22.545 9.451l-51.17 51.631-51.132-51.631c-6.251-6.272-14.417-9.451-22.588-9.451z" />
<glyph unicode="&#xe943;" glyph-name="Paper-Negative" data-tags="Paper Negative" d="M650.287 864.229l215.488-226.628c5.7-6.013 8.892-14.003 8.892-22.336v-399.521c0-107.17-85.457-194.411-190.562-194.411h-339.784c-111.191 0-194.988 83.588-194.988 194.411v107.644c0 17.783 14.292 32.218 31.902 32.218s31.903-14.434 31.903-32.218v-107.644c0-75.298 55.17-129.98 131.183-129.98h339.784c69.926 0 126.758 58.334 126.758 129.98v386.592l-162.871 171.259v-56.184c0-43.127 34.752-78.263 77.457-78.349 17.609-0.043 31.859-14.476 31.817-32.302-0.043-17.74-14.293-32.13-31.902-32.13h-0.043c-77.798 0.172-141.137 64.217-141.137 142.781v92.309h-239.863c-71.121 0-131.183-58.59-131.183-127.961v-183.245c0-17.783-14.292-32.213-31.903-32.213s-31.902 14.43-31.902 32.213v183.245c0 104.293 89.284 192.393 194.988 192.393h269.298c0.375 0.038 0.73 0.143 1.079 0.249 0.444 0.133 0.892 0.266 1.387 0.266 0.499 0 0.943-0.134 1.387-0.266 0.354-0.106 0.704-0.211 1.084-0.249h8.717c8.678 0 16.973-3.565 23.014-9.923zM640.384 370.061c0-17.783-14.293-32.218-31.902-32.218h-208.472c-17.61 0-31.902 14.434-31.902 32.218s14.292 32.213 31.902 32.213h208.472c17.609 0 31.902-14.43 31.902-32.213z" />
<glyph unicode="&#xe944;" glyph-name="Paper-Plus" data-tags="Paper Plus" d="M650.287 864.229l215.488-226.628c5.7-6.013 8.892-14.003 8.892-22.336v-399.521c0-107.17-85.457-194.411-190.562-194.411h-339.784c-111.191 0-194.988 83.588-194.988 194.411v107.644c0 17.783 14.292 32.218 31.902 32.218s31.903-14.434 31.903-32.218v-107.644c0-75.298 55.17-129.98 131.183-129.98h339.784c69.926 0 126.758 58.334 126.758 129.98v386.592l-162.871 171.259v-56.184c0-43.127 34.752-78.263 77.457-78.349 17.609-0.043 31.859-14.476 31.817-32.302-0.043-17.74-14.293-32.13-31.902-32.13h-0.043c-77.798 0.172-141.137 64.217-141.137 142.781v92.309h-239.863c-71.121 0-131.183-58.59-131.183-127.961v-183.245c0-17.783-14.292-32.213-31.903-32.213s-31.902 14.43-31.902 32.213v183.245c0 104.293 89.284 192.393 194.988 192.393h269.298c0.41 0.039 0.781 0.151 1.148 0.259 0.435 0.13 0.858 0.256 1.318 0.256 0.499 0 0.943-0.134 1.387-0.266 0.354-0.106 0.704-0.211 1.084-0.249h8.717c8.678 0 16.973-3.565 23.014-9.923zM472.311 511.087c0 17.783 14.293 32.216 31.906 32.216 17.609 0 31.902-14.433 31.902-32.216v-73.067h72.354c17.609 0 31.902-14.43 31.902-32.213s-14.293-32.218-31.902-32.218h-72.354v-73.024c0-17.779-14.293-32.213-31.902-32.213-17.613 0-31.906 14.434-31.906 32.213v73.024h-72.31c-17.61 0-31.902 14.434-31.902 32.218s14.292 32.213 31.902 32.213h72.31v73.067z" />
<glyph unicode="&#xe945;" glyph-name="Paper-Upload" data-tags="Paper Upload" d="M650.287 864.228l215.488-226.639c5.7-6.014 8.892-14.004 8.892-22.337v-394.729c0-107.994-87.241-199.189-190.562-199.189h-339.784c-109.361 0-194.988 87.501-194.988 199.189v107.648c0 17.788 14.292 32.218 31.902 32.218s31.903-14.43 31.903-32.218v-107.648c0-76.804 56.361-134.754 131.183-134.754h339.784c68.736 0 126.758 61.73 126.758 134.754v381.799l-162.871 171.311v-56.187c0-43.129 34.752-78.31 77.457-78.396 17.609-0.043 31.859-14.476 31.817-32.303-0.043-17.741-14.293-32.131-31.902-32.131h-0.043c-77.798 0.172-141.137 64.22-141.137 142.831v92.271h-239.863c-71.121 0-131.183-58.592-131.183-127.968v-178.444c0-17.783-14.292-32.213-31.903-32.213s-31.902 14.43-31.902 32.213v178.444c0 104.299 89.284 192.403 194.988 192.403h269.298c0.41 0.039 0.781 0.151 1.148 0.259 0.435 0.13 0.858 0.256 1.318 0.256 0.499 0 0.943-0.134 1.387-0.266 0.354-0.106 0.704-0.211 1.084-0.249h8.717c8.678 0 16.973-3.566 23.014-9.923zM527.497 272.67c0-17.788-14.293-32.218-31.902-32.218-17.613 0-31.902 14.43-31.902 32.218v204.386l-66.231-67.226c-12.421-12.629-32.625-12.629-45.131-0.090-12.463 12.544-12.506 32.951-0.085 45.581l120.762 122.511c5.786 5.799 13.781 9.408 22.588 9.408 8.845 0 16.802-3.608 22.588-9.408v-0.043l120.759-122.467c12.42-12.629 12.378-33.037-0.085-45.581-6.251-6.225-14.379-9.361-22.545-9.361s-16.333 3.136-22.588 9.451l-66.227 67.226v-204.386z" />
<glyph unicode="&#xe946;" glyph-name="Password" data-tags="Password" d="M327.058 874.674h369.876c144.597 0 241.749-101.461 241.749-252.416v-348.5c0-150.955-97.195-252.416-241.792-252.416h-229.547c-17.664 0-32 14.336-32 32s14.336 32 32 32h229.547c107.989 0 177.792 73.941 177.792 188.416v348.5c0 114.475-69.803 188.416-177.749 188.416h-369.876c-107.947 0-177.707-73.941-177.707-188.416v-348.5c0-114.475 69.76-188.416 177.707-188.416 17.664 0 32-14.336 32-32s-14.336-32-32-32c-144.597 0-241.707 101.461-241.707 252.416v348.5c0 150.955 97.109 252.416 241.707 252.416zM275.944 493.551c7.253 16.128 26.112 23.339 42.325 16.043 16.128-7.211 23.296-26.155 16.043-42.283-2.731-6.101-4.096-12.587-4.096-19.285 0-25.941 21.077-47.019 46.976-47.019 25.941 0 47.019 21.077 47.019 47.019 0 25.899-21.077 46.976-47.019 46.976-17.664 0-32 14.336-32 32s14.336 31.999 32 31.999c50.047 0 91.903-33.45 105.727-78.975h242.859c17.664 0 32-14.336 32-32v-79.019c0-17.664-14.336-32-32-32s-32 14.336-32 32v47.019h-56.704v-47.019c0-17.664-14.336-32-32-32s-32 14.336-32 32v47.019h-90.155c-13.824-45.568-55.68-79.019-105.727-79.019-61.184 0-110.976 49.792-110.976 111.019 0 15.829 3.243 31.104 9.728 45.525z" />
<glyph unicode="&#xe947;" glyph-name="Play" data-tags="Play" d="M85.338 448.009c0 235.308 191.403 426.668 426.666 426.668s426.667-191.36 426.667-426.668c0-235.264-191.403-426.667-426.667-426.667-59.52 0-117.12 11.989-171.221 35.755-15.616 6.827-22.699 25.045-15.872 40.661 6.827 15.701 25.003 22.741 40.704 15.872 46.208-20.267 95.445-30.549 146.389-30.549 201.173 0 364.885 163.755 364.885 364.928 0 201.218-163.712 364.887-364.885 364.887-201.216 0-364.885-163.669-364.885-364.887 0-78.805 24.661-153.771 71.424-216.917 10.112-13.696 7.253-33.024-6.443-43.179-13.739-10.197-33.067-7.381-43.221 6.443-54.656 73.771-83.541 161.493-83.541 253.653zM461.653 278.647h1.536c12.501 0.299 38.357 11.051 38.613 11.179 43.435 18.304 129.408 74.795 164.139 112.171l2.091 2.219c4.267 4.523 10.624 11.563 12.117 13.568 6.4 8.832 9.813 19.328 9.813 30.208 0 11.477-3.883 22.784-11.008 31.872-1.152 1.451-6.101 6.827-10.112 11.051l-3.371 3.627c-33.792 36.053-121.771 95.404-167.979 113.324-7.040 2.773-24.448 9.259-33.963 9.515-9.045 0.128-17.792-1.792-26.155-6.187-10.368-5.632-18.562-14.677-22.914-25.216-3.2-7.509-7.467-29.824-7.509-30.165-4.48-24.706-7.040-64.002-6.955-107.778-0.085-41.387 2.219-79.317 6.272-103.979 0.043-0.256 4.864-27.861 9.899-37.632 8.789-16.981 26.626-27.776 45.484-27.776zM467.712 544.719c0.341 1.963 0.939 4.864 1.579 7.808 2.304-0.853 4.352-1.621 5.675-2.133 36.992-14.379 118.528-69.335 145.28-97.964l3.584-3.797c0.077-0.077 0.154-0.158 0.226-0.239 0.021-0.026 0.047-0.051 0.073-0.081 0.047-0.055 0.098-0.111 0.149-0.162 0.047-0.055 0.098-0.107 0.149-0.158-0.469-0.427-0.896-0.896-1.28-1.323-0.043-0.085-2.261-2.603-2.475-2.56-25.899-27.989-103.296-80.683-142.805-97.323-1.020-0.414-2.33-0.922-3.763-1.472l-0.004-0.004c-1.506-0.58-3.149-1.216-4.723-1.852-0.896 3.925-1.707 7.979-2.133 10.624-3.499 21.12-5.547 56.277-5.504 93.952-0.043 39.083 2.261 76.16 5.973 96.684z" />
<glyph unicode="&#xe948;" glyph-name="Plus" data-tags="Plus" d="M929.084 475.332c-6.135-6.063-14.438-9.421-23.066-9.318v0.751c-18.031 0-32.644 14.613-32.644 32.644v108.45c0 130.214-71.3 201.513-201.139 201.513h-320.094c-129.839 0-201.513-71.674-201.513-201.513v-320.094c0-129.463 71.674-201.139 201.513-201.139h320.094c129.839 0 201.139 71.676 201.139 201.139 0 18.031 14.613 32.649 32.644 32.649s32.649-14.618 32.649-32.649c0-164.361-102.071-266.432-266.432-266.432h-320.094c-164.738 0-266.807 102.071-266.807 266.432v320.094c0 164.738 102.070 266.807 266.807 266.807h320.094c163.61 0 266.432-102.070 266.432-266.807v-109.577c0-8.623-3.452-16.887-9.583-22.95zM513.502 625.121c3.511 0.001 6.963-0.571 10.231-1.663 13.598-3.943 23.539-16.491 23.539-31.36v-102.072h111.078c3.849 0.047 7.637-0.597 11.196-1.865 4.966-1.562 9.527-4.322 13.257-8.094 6.063-6.131 9.421-14.438 9.318-23.061 0.004-17.741-14.157-32.239-31.893-32.649h-290.826c-2.777 0.064-5.467 0.469-8.031 1.173-14.639 3.294-25.569 16.286-25.742 31.851-0.1 8.623 3.256 16.93 9.319 23.061 6.063 6.135 14.329 9.587 22.953 9.583h112.576v102.447c0.405 18.007 15.014 32.45 33.024 32.648zM481.229 305.028v41.276c0.294 8.661 4.019 16.849 10.351 22.763 6.336 5.914 14.763 9.062 23.424 8.759 8.691-0.192 16.943-3.887 22.878-10.244 5.931-6.357 9.050-14.839 8.64-23.526v-41.28c-0.29-8.661-4.015-16.849-10.351-22.763-6.336-5.909-14.758-9.062-23.42-8.759-17.946 0.811-31.949 15.817-31.522 33.775z" />
<glyph unicode="&#xe949;" glyph-name="Profile" data-tags="Profile" d="M343.823 646.235c0 92.158 75.437 167.121 168.177 167.121s168.175-74.964 168.175-167.121c0-92.115-75.435-167.080-168.175-167.080s-168.177 74.965-168.177 167.080zM282.126 646.235c0-125.906 103.13-228.387 229.874-228.387 126.746 0 229.833 102.481 229.833 228.387 0 125.949-103.087 228.432-229.833 228.432-126.744 0-229.874-102.483-229.874-228.432zM468.378 21.973c14.298-0.427 28.851-0.64 43.622-0.64 146.539 0 341.333 16.256 341.333 156.582 0 157.478-256.922 157.478-341.333 157.478-146.537 0-341.333-16.256-341.333-156.625 0-42.027 19.664-98.726 113.348-130.257 16.186-5.547 33.618 3.2 39.114 19.2 5.453 16-3.177 33.365-19.321 38.784-64.102 21.585-71.487 51.58-71.487 72.273 0 63.275 94.114 95.36 279.679 95.36s279.68-32.384 279.68-96.213c0-63.232-94.114-95.27-279.68-95.27-14.17 0-28.122 0.171-41.86 0.555-16.486-0.128-31.172-12.843-31.646-29.739-0.512-16.939 12.881-31.061 29.884-31.488z" />
<glyph unicode="&#xe94a;" glyph-name="Scan" data-tags="Scan" d="M185.459 586.153c0-17.572-14.592-31.881-32.512-31.881s-32.469 14.309-32.469 31.881v79.327c0 91.712 76.075 166.394 169.557 166.478l69.547 0.042c17.92 0 32.469-14.267 32.469-31.881 0-17.573-14.507-31.84-32.469-31.84l-69.461-0.042c-57.728-0.084-104.661-46.149-104.661-102.757v-79.327zM665.634 768.291h67.968c57.899 0 105.003-46.191 105.003-102.966v-79.202c0-17.53 14.549-31.84 32.469-31.84s32.469 14.309 32.469 31.84v79.202c0 91.921-76.203 166.645-169.941 166.645h-67.968c-17.92 0-32.469-14.225-32.469-31.84 0-17.572 14.549-31.84 32.469-31.84zM948.864 446.242h-873.728c-17.877 0-32.469-14.268-32.469-31.881 0-17.574 14.592-31.838 32.469-31.838h45.312v-151.962c0-91.755 76.117-166.438 169.643-166.519l69.461-0.043c17.963 0 32.469 14.268 32.512 31.881 0 17.574-14.549 31.842-32.469 31.842l-69.461 0.038c-57.728 0.085-104.704 46.153-104.704 102.801v151.962h653.184v-151.838c0-56.815-47.104-102.963-105.003-102.963h-67.968c-17.92 0-32.469-14.268-32.469-31.842 0-17.613 14.549-31.881 32.469-31.881h67.968c93.696 0 169.941 74.726 169.941 166.686v151.838h45.312c17.92 0 32.469 14.263 32.469 31.838 0 17.613-14.549 31.881-32.469 31.881zM432.717 554.272h158.592c17.963 0 32.512 14.309 32.512 31.881s-14.549 31.84-32.512 31.84h-158.592c-17.92 0-32.469-14.267-32.469-31.84s14.549-31.881 32.469-31.881zM432.73 286.976h158.592c17.92 0 32.469-14.263 32.469-31.838 0-17.613-14.549-31.838-32.469-31.838h-158.592c-17.963 0-32.512 14.225-32.512 31.838 0 17.574 14.549 31.838 32.512 31.838z" />
</font>
</defs>
</svg>
