<?xml version="1.0" standalone="no"?>
<!DOCTYPE svg PUBLIC "-//W3C//DTD SVG 1.1//EN" "http://www.w3.org/Graphics/SVG/1.1/DTD/svg11.dtd" >
<svg xmlns="http://www.w3.org/2000/svg">
<metadata>
<json>
<![CDATA[
{
	"fontFamily": "Iconly-light",
	"fontURL": "",
	"designer": "",
	"designerURL": "",
	"license": "MIT",
	"licenseURL": "https://opensource.org/licenses/MIT",
	"description": "Iconly - Essential icons\nFont generated by IcoMoon.",
	"copyright": "MIT",
	"majorVersion": 1,
	"minorVersion": 0,
	"version": "Version 1.0",
	"fontId": "Iconly-light",
	"psName": "Iconly-light",
	"subFamily": "Regular",
	"fullName": "Iconly-light"
}
]]>
</json>
</metadata>
<defs>
<font id="Iconly-light" horiz-adv-x="1024">
<font-face units-per-em="1024" ascent="960" descent="-64" />
<missing-glyph horiz-adv-x="1024" />
<glyph unicode="&#x20;" horiz-adv-x="512" d="" />
<glyph unicode="&#xe900;" glyph-name="Activity" data-tags="Activity" d="M717.705 764.528c0 60.828 49.463 110.139 110.481 110.139s110.481-49.311 110.481-110.139c0-60.828-49.463-110.138-110.481-110.138s-110.481 49.311-110.481 110.138zM876.651 764.528c0 26.683-21.7 48.314-48.465 48.314s-48.465-21.631-48.465-48.314c0-26.683 21.7-48.314 48.465-48.314s48.465 21.631 48.465 48.314zM662.515 552.951c10.492 13.495 29.969 15.959 43.503 5.502 12.309-9.506 15.471-26.417 8.064-39.554l-2.543-3.814-121.101-155.814c-9.579-12.326-26.645-15.441-39.838-7.945l-3.827 2.569-116.544 91.255-104.634-135.595c-9.494-12.301-26.447-15.509-39.648-8.171l-3.837 2.522c-12.339 9.463-15.558 26.364-8.195 39.526l2.528 3.823 123.75 160.341c9.562 12.386 26.669 15.539 39.892 8.030l3.84-2.573 116.578-91.315 102.012 131.212zM649.54 809.046c0 17.072-13.884 30.912-31.010 30.912l-310.164-0.161c-134.49-4.504-223.032-102.97-223.032-242.776v-333.128l0.148-9.946c4.145-138.227 94.866-232.614 232.568-232.614l365.419 0.162c134.541 4.489 223.031 102.66 223.031 242.398v290.119l-0.286 4.195c-2.052 15.088-15.027 26.717-30.724 26.717-17.126 0-31.006-13.84-31.006-30.912v-290.119l-0.171-9.596c-3.75-104.401-68.954-171.14-170.53-171.14l-364.945 0.183c-100.155 3.981-161.488 73.284-161.488 180.553v333.128l0.171 9.603c3.753 104.51 69.041 171.509 170.529 171.509l304.687 0.282c15.138 2.047 26.803 14.981 26.803 30.63z" />
<glyph unicode="&#xe901;" glyph-name="Add-User" data-tags="Add User" d="M421.437 874.672c-125.847 0-226.901-101.039-226.901-226.901 0-125.833 101.068-226.902 226.901-226.902 125.861 0 226.9 101.056 226.9 226.902 0 125.876-101.026 226.901-226.9 226.901zM421.437 810.672c90.529 0 162.9-72.372 162.9-162.901 0-90.503-72.388-162.902-162.9-162.902-90.487 0-162.901 72.416-162.901 162.902 0 90.514 72.399 162.901 162.901 162.901zM421.437 343.202c-214.614 0-336.085-40.721-336.085-156.117 0-115.52 122.010-157.013 336.085-157.013l27.455 0.235c197.44 3.452 308.629 45.538 308.629 155.883 0 113.011-116.762 155.174-322.253 156.954l-13.831 0.060zM421.437 279.202c179.263 0 272.084-31.565 272.084-93.013 0-61.065-92.595-92.117-272.084-92.117-179.263 0-272.085 31.569-272.085 93.013 0 59.443 87.61 90.419 257.719 92.049l14.367 0.068zM819.375 622.119c16.201 0 29.589-12.038 31.71-27.658l0.29-4.342v-53.542h55.292c17.673 0 32-14.328 32-32.001 0-16.201-12.036-29.589-27.657-31.706l-4.343-0.294h-55.292v-53.551c0-17.673-14.327-32-32-32-16.201 0-29.589 12.041-31.706 27.661l-0.294 4.339v53.551h-55.215c-17.673 0-32 14.327-32 32 0 16.201 12.041 29.59 27.661 31.709l4.339 0.292h55.215v53.542c0 17.673 14.327 32 32 32z" />
<glyph unicode="&#xe902;" glyph-name="Arrow---Down" data-tags="Arrow - Down" d="M547.11 801.828c-2.347 17.039-17.169 30.172-35.106 30.172-19.567 0-35.426-15.629-35.426-34.909v-613.62l-224.049 221.662-3.966 3.388c-13.848 10.167-33.532 9.084-46.135-3.285-13.864-13.606-13.91-35.708-0.104-49.37l284.093-281.101c1.63-1.677 3.422-3.187 5.359-4.518 13.833-9.515 33.028-8.175 45.35 4.023l284.553 281.6 3.422 3.921c10.257 13.687 9.075 33.079-3.533 45.444-13.862 13.606-36.292 13.559-50.099-0.102l-224.038-221.717v613.676l-0.32 4.737z" />
<glyph unicode="&#xe903;" glyph-name="Arrow---Down-2" data-tags="Arrow - Down 2" d="M180.952 629.508c12.467 12.717 31.977 13.873 45.724 3.468l3.939-3.468 281.385-287.040 281.387 287.040c12.467 12.717 31.974 13.873 45.722 3.468l3.938-3.468c12.467-12.717 13.602-32.617 3.401-46.641l-3.401-4.018-306.214-312.358c-12.467-12.719-31.979-13.875-45.726-3.469l-3.938 3.469-306.216 312.358c-13.713 13.989-13.713 36.67 0 50.659z" />
<glyph unicode="&#xe904;" glyph-name="Arrow---Down-3" data-tags="Arrow - Down 3" d="M542.319 804.924c-2.027 15.29-14.831 27.076-30.319 27.076-16.9 0-30.596-14.025-30.596-31.326v-342.502h-173.424c-24.082 0-38.725-27.166-25.887-48.026l204.021-331.52c12.002-19.503 39.77-19.503 51.772 0l204.023 331.52c12.834 20.86-1.805 48.026-25.89 48.026h-173.423v342.502l-0.277 4.25zM510.575 395.55c0.474-0.021 0.947-0.034 1.425-0.034s0.951 0.013 1.425 0.034h147.102l-148.54-241.421-148.578 241.421h147.166z" />
<glyph unicode="&#xe905;" glyph-name="Arrow---Down-Circle" data-tags="Arrow - Down Circle" d="M512.009 874.667c-235.641 0-426.665-191.038-426.665-426.667 0-235.627 191.024-426.667 426.665-426.667 235.618 0 426.667 191.053 426.667 426.667s-191.049 426.667-426.667 426.667zM512.009 810.667c200.269 0 362.667-162.398 362.667-362.667s-162.398-362.667-362.667-362.667c-200.294 0-362.665 162.385-362.665 362.667s162.371 362.667 362.665 362.667zM382.999 535.223c-12.507 9.322-30.287 8.328-41.672-3.007-12.524-12.471-12.567-32.734-0.098-45.257l148.097-148.736 3.593-3.115c12.548-9.344 30.387-8.303 41.758 3.115l148.096 148.736 3.093 3.597c9.267 12.548 8.196 30.323-3.191 41.66l-3.593 3.089c-12.548 9.268-30.323 8.197-41.66-3.188l-125.466-125.931-125.375 125.931-3.583 3.105z" />
<glyph unicode="&#xe906;" glyph-name="Arrow---Down-Square" data-tags="Arrow - Down Square" d="M327.078 874.667h369.878c145.22 0 241.707-103.651 241.707-252.416v-348.501c0-148.608-96.772-252.416-241.707-252.416h-369.878c-145.228 0-241.749 103.659-241.749 252.416v348.501c0 148.757 96.521 252.416 241.749 252.416zM696.956 810.667h-369.878c-108.821 0-177.749-74.025-177.749-188.416v-348.501c0-114.389 68.928-188.416 177.749-188.416h369.878c108.544 0 177.707 74.189 177.707 188.416v348.501c0 114.403-68.898 188.416-177.707 188.416zM511.996 654.336c16.201 0 29.589-12.038 31.706-27.658l0.294-4.342v-271.155l105.237 105.647c11.337 11.383 29.111 12.454 41.66 3.187l3.597-3.089c11.383-11.337 12.454-29.116 3.187-41.66l-3.093-3.597-159.915-160.597c-11.371-11.418-29.21-12.459-41.758-3.115l-0.132 0.115c-1.186 0.896-2.313 1.869-3.362 2.918l-0.098 0.081-159.914 160.597c-12.47 12.523-12.427 32.785 0.096 45.257 11.385 11.337 29.165 12.331 41.672 3.008l3.583-3.106 105.24-105.707v271.215c0 17.673 14.327 32 32 32z" />
<glyph unicode="&#xe907;" glyph-name="Arrow---Left" data-tags="Arrow - Left" d="M865.826 412.89c17.041 2.347 30.174 17.169 30.174 35.106 0 19.567-15.629 35.426-34.91 35.426h-613.62l221.663 224.049 3.388 3.966c10.167 13.848 9.084 33.532-3.285 46.135-13.606 13.864-35.708 13.91-49.369 0.104l-281.103-284.093c-1.673-1.63-3.187-3.422-4.516-5.359-9.517-13.833-8.177-33.028 4.021-45.35l281.6-284.553 3.922-3.422c13.687-10.257 33.079-9.075 45.444 3.533 13.606 13.862 13.559 36.292-0.102 50.099l-221.719 224.038 618.412 0.32z" />
<glyph unicode="&#xe908;" glyph-name="Arrow---Left-2" data-tags="Arrow - Left 2" d="M693.508 779.048c12.719-12.467 13.875-31.977 3.469-45.724l-3.469-3.939-287.041-281.385 287.041-281.387c12.719-12.467 13.875-31.974 3.469-45.722l-3.469-3.938c-12.719-12.467-32.619-13.602-46.639-3.401l-4.019 3.401-312.358 306.214c-12.717 12.467-13.873 31.979-3.468 45.726l3.468 3.938 312.358 306.216c13.99 13.713 36.668 13.713 50.658 0z" />
<glyph unicode="&#xe909;" glyph-name="Arrow---Left-3" data-tags="Arrow - Left 3" d="M868.924 417.681c15.292 2.027 27.076 14.831 27.076 30.319 0 16.9-14.025 30.596-31.326 30.596h-342.502v173.424c0 24.082-27.166 38.725-48.026 25.887l-331.52-204.021c-19.502-12.002-19.502-39.77 0-51.772l331.52-204.023c20.86-12.834 48.026 1.805 48.026 25.89v173.423l346.752 0.277zM459.55 449.425c-0.021-0.474-0.034-0.947-0.034-1.425s0.013-0.951 0.034-1.425v-147.102l-241.422 148.54 241.422 148.578v-147.166z" />
<glyph unicode="&#xe90a;" glyph-name="Arrow---Left-Circle" data-tags="Arrow - Left Circle" d="M938.667 447.991c0 235.644-191.040 426.668-426.667 426.668-235.629 0-426.667-191.024-426.667-426.668 0-235.614 191.052-426.667 426.667-426.667s426.667 191.053 426.667 426.667zM874.667 447.991c0-200.269-162.398-362.667-362.667-362.667s-362.667 162.398-362.667 362.667c0 200.297 162.383 362.668 362.667 362.668 200.282 0 362.667-162.371 362.667-362.668zM599.223 577.003c9.323 12.507 8.329 30.287-3.008 41.672-12.471 12.524-32.734 12.567-45.257 0.098l-148.736-148.096-3.114-3.593c-9.344-12.548-8.305-30.391 3.114-41.762l148.736-148.096 3.597-3.089c12.548-9.267 30.323-8.196 41.66 3.187l3.089 3.597c9.267 12.548 8.196 30.323-3.187 41.66l-125.931 125.461 125.931 125.378 3.106 3.583z" />
<glyph unicode="&#xe90b;" glyph-name="Arrow---Left-Square" data-tags="Arrow - Left Square" d="M938.667 632.922v-369.878c0-145.22-103.65-241.707-252.416-241.707h-348.501c-148.61 0-252.416 96.772-252.416 241.707v369.878c0 145.228 103.659 241.749 252.416 241.749h348.501c148.757 0 252.416-96.521 252.416-241.749zM874.667 263.044v369.878c0 108.821-74.027 177.749-188.416 177.749h-348.501c-114.391 0-188.416-68.928-188.416-177.749v-369.878c0-108.544 74.188-177.707 188.416-177.707h348.501c114.402 0 188.416 68.898 188.416 177.707zM718.336 448.004c0-16.201-12.041-29.589-27.657-31.706l-4.343-0.294h-271.155l105.647-105.237c11.383-11.337 12.454-29.111 3.187-41.66l-3.089-3.597c-11.337-11.383-29.116-12.454-41.66-3.187l-3.597 3.093-160.597 159.915c-11.419 11.371-12.457 29.21-3.114 41.758l0.115 0.132c0.894 1.186 1.868 2.313 2.916 3.362l0.083 0.098 160.597 159.914c12.523 12.47 32.785 12.427 45.257-0.096 11.337-11.385 12.331-29.165 3.008-41.672l-3.106-3.583-105.706-105.24h271.214c17.673 0 32-14.327 32-32z" />
<glyph unicode="&#xe90c;" glyph-name="Arrow---Right" data-tags="Arrow - Right" d="M158.172 483.11c-17.039-2.347-30.172-17.169-30.172-35.106 0-19.567 15.629-35.426 34.909-35.426h613.62l-221.662-224.047-3.388-3.968c-10.167-13.85-9.084-33.532 3.285-46.135 13.606-13.862 35.708-13.909 49.37-0.102l281.101 284.092c1.677 1.63 3.187 3.422 4.518 5.359 9.515 13.833 8.175 33.028-4.023 45.35l-281.6 284.551-3.921 3.421c-13.687 10.261-33.079 9.075-45.444-3.529-13.606-13.865-13.559-36.296 0.102-50.101l221.717-224.038-618.412-0.32z" />
<glyph unicode="&#xe90d;" glyph-name="Arrow---Right-2" data-tags="Arrow - Right 2" d="M330.492 116.954c-12.717 12.467-13.873 31.974-3.468 45.722l3.468 3.938 287.040 281.387-287.040 281.385c-12.717 12.467-13.873 31.977-3.468 45.724l3.468 3.939c12.717 12.467 32.617 13.6 46.641 3.4l4.018-3.4 312.358-306.216c12.719-12.467 13.875-31.979 3.469-45.726l-3.469-3.938-312.358-306.214c-13.989-13.717-36.67-13.717-50.659 0z" />
<glyph unicode="&#xe90e;" glyph-name="Arrow---Right-3" data-tags="Arrow - Right 3" d="M155.076 478.319c-15.29-2.027-27.076-14.831-27.076-30.319 0-16.9 14.025-30.596 31.326-30.596h342.502v-173.423c0-24.085 27.166-38.724 48.026-25.89l331.52 204.023c19.503 12.002 19.503 39.77 0 51.772l-331.52 204.021c-20.86 12.838-48.026-1.805-48.026-25.887v-173.424l-346.752-0.277zM564.45 446.575c0.021 0.474 0.034 0.947 0.034 1.425s-0.013 0.951-0.034 1.425v147.101l241.421-148.538-241.421-148.578v147.166z" />
<glyph unicode="&#xe90f;" glyph-name="Arrow---Right-Circle" data-tags="Arrow - Right Circle" d="M85.333 448.009c0-235.644 191.038-426.667 426.667-426.667 235.627 0 426.667 191.023 426.667 426.667 0 235.614-191.053 426.666-426.667 426.666s-426.667-191.052-426.667-426.666zM149.333 448.009c0 200.268 162.398 362.666 362.667 362.666s362.667-162.398 362.667-362.666c0-200.294-162.385-362.667-362.667-362.667s-362.667 162.372-362.667 362.667zM424.777 318.997c-9.322-12.506-8.328-30.289 3.007-41.673 12.471-12.523 32.734-12.57 45.257-0.098l148.736 148.096 3.115 3.593c9.344 12.548 8.303 30.391-3.115 41.762l-148.736 148.094-3.597 3.090c-12.548 9.268-30.323 8.197-41.66-3.188l-3.089-3.596c-9.268-12.547-8.197-30.323 3.188-41.659l125.931-125.462-125.931-125.376-3.105-3.584z" />
<glyph unicode="&#xe910;" glyph-name="Arrow---Right-Square" data-tags="Arrow - Right Square" d="M85.333 263.083v369.877c0 145.222 103.651 241.707 252.416 241.707h348.501c148.608 0 252.416-96.772 252.416-241.707v-369.877c0-145.229-103.659-241.749-252.416-241.749h-348.501c-148.757 0-252.416 96.521-252.416 241.749zM149.333 632.96v-369.877c0-108.821 74.025-177.749 188.416-177.749h348.501c114.389 0 188.416 68.928 188.416 177.749v369.877c0 108.546-74.189 177.707-188.416 177.707h-348.501c-114.403 0-188.416-68.896-188.416-177.707zM305.664 448c0 16.201 12.038 29.589 27.658 31.71l4.342 0.29h271.155l-105.647 105.239c-11.383 11.337-12.454 29.112-3.187 41.659l3.089 3.596c11.337 11.385 29.116 12.456 41.66 3.187l3.597-3.091 160.597-159.913c11.418-11.371 12.459-29.214 3.115-41.758l-0.115-0.132c-0.896-1.19-1.869-2.317-2.918-3.366l-0.081-0.098-160.597-159.915c-12.523-12.467-32.785-12.425-45.257 0.098-11.337 11.383-12.331 29.163-3.008 41.673l3.106 3.584 105.707 105.237h-271.215c-17.673 0-32 14.327-32 32z" />
<glyph unicode="&#xe911;" glyph-name="Arrow---Up" data-tags="Arrow - Up" d="M476.89 94.174c2.347-17.041 17.169-30.174 35.106-30.174 19.567 0 35.426 15.629 35.426 34.91v613.62l224.047-221.663 3.968-3.388c13.85-10.167 33.532-9.084 46.135 3.285 13.862 13.606 13.909 35.708 0.102 49.369l-284.092 281.103c-1.63 1.673-3.422 3.187-5.359 4.516-13.833 9.517-33.028 8.177-45.35-4.021l-284.551-281.6-3.421-3.922c-10.261-13.687-9.075-33.079 3.529-45.444 13.865-13.606 36.296-13.559 50.101 0.102l224.038 221.719v-613.676l0.32-4.736z" />
<glyph unicode="&#xe912;" glyph-name="Arrow---Up-2" data-tags="Arrow - Up 2" d="M843.046 266.492c-12.467-12.719-31.974-13.875-45.722-3.469l-3.938 3.469-281.387 287.041-281.385-287.041c-12.467-12.719-31.977-13.875-45.724-3.469l-3.939 3.469c-12.467 12.719-13.6 32.619-3.4 46.639l3.4 4.019 306.216 312.358c12.467 12.717 31.979 13.873 45.726 3.468l3.938-3.468 306.214-312.358c13.717-13.99 13.717-36.668 0-50.658z" />
<glyph unicode="&#xe913;" glyph-name="Arrow---Up-3" data-tags="Arrow - Up 3" d="M481.681 91.076c2.027-15.292 14.831-27.076 30.319-27.076 16.9 0 30.596 14.025 30.596 31.326v342.502h173.423c24.085 0 38.724 27.166 25.89 48.026l-204.023 331.52c-12.002 19.502-39.77 19.502-51.772 0l-204.021-331.52c-12.838-20.86 1.805-48.026 25.887-48.026h173.424v-342.502l0.277-4.25zM513.425 500.45c-0.474 0.021-0.947 0.034-1.425 0.034s-0.951-0.013-1.425-0.034h-147.101l148.538 241.422 148.578-241.422h-147.166z" />
<glyph unicode="&#xe914;" glyph-name="Arrow---Up-Circle" data-tags="Arrow - Up Circle" d="M511.991 21.333c235.639 0 426.667 191.040 426.667 426.667 0 235.629-191.027 426.667-426.667 426.667-235.616 0-426.668-191.052-426.668-426.667s191.052-426.667 426.668-426.667zM511.991 85.333c-200.27 0-362.668 162.398-362.668 362.667s162.398 362.667 362.668 362.667c200.294 0 362.667-162.383 362.667-362.667 0-200.282-162.372-362.667-362.667-362.667zM640.998 360.777c12.51-9.323 30.289-8.329 41.673 3.008 12.527 12.471 12.57 32.734 0.098 45.257l-148.096 148.736-3.593 3.114c-12.548 9.344-30.387 8.305-41.758-3.114l-148.097-148.736-3.090-3.597c-9.268-12.548-8.197-30.323 3.188-41.66l3.596-3.089c12.547-9.267 30.323-8.196 41.659 3.187l125.464 125.931 125.376-125.931 3.58-3.106z" />
<glyph unicode="&#xe915;" glyph-name="Arrow---Up-Square" data-tags="Arrow - Up Square" d="M696.917 21.333h-369.877c-145.222 0-241.707 103.65-241.707 252.416v348.501c0 148.61 96.772 252.416 241.707 252.416h369.877c145.229 0 241.749-103.659 241.749-252.416v-348.501c0-148.757-96.521-252.416-241.749-252.416zM327.040 85.333h369.877c108.821 0 177.749 74.027 177.749 188.416v348.501c0 114.391-68.928 188.416-177.749 188.416h-369.877c-108.546 0-177.707-74.188-177.707-188.416v-348.501c0-114.402 68.896-188.416 177.707-188.416zM512 241.664c-16.201 0-29.589 12.041-31.71 27.657l-0.29 4.343v271.155l-105.239-105.647c-11.337-11.383-29.112-12.454-41.659-3.187l-3.596 3.089c-11.385 11.337-12.456 29.116-3.187 41.66l3.091 3.597 159.913 160.597c11.371 11.419 29.214 12.457 41.758 3.114l0.132-0.115c1.19-0.894 2.317-1.868 3.366-2.916l0.098-0.083 159.915-160.597c12.467-12.523 12.425-32.785-0.098-45.257-11.383-11.337-29.163-12.331-41.673-3.008l-3.584 3.106-105.237 105.706v-271.214c0-17.673-14.327-32-32-32z" />
<glyph unicode="&#xe916;" glyph-name="Bag" data-tags="Bag" d="M392.533 512v0h-4.267c-17.067 0-25.6-17.067-25.6-29.867 0-17.067 12.8-29.867 29.867-29.867v0h4.267c17.067 0 25.6 17.067 25.6 29.867 0 17.067-12.8 29.867-29.867 29.867zM913.067 277.333l-29.867 256c-21.333 98.133-85.333 153.6-157.867 153.6h-4.267c-12.8 106.667-102.4 187.733-209.067 187.733-55.467 0-110.933-21.333-149.333-59.733-34.133-34.133-55.467-76.8-59.733-128v0c-76.8 0-140.8-55.467-157.867-153.6l-34.133-251.733c-25.6-179.2 59.733-260.267 226.133-260.267h345.6c157.867 0 251.733 89.6 230.4 256zM405.333 768c29.867 25.6 64 42.667 106.667 42.667 72.533 0 136.533-55.467 145.067-123.733h-294.4c8.533 29.867 21.333 59.733 42.667 81.067zM682.667 81.067h-345.6c-132.267 0-187.733 51.2-166.4 192l34.133 247.467c12.8 72.533 51.2 106.667 98.133 106.667h422.4c42.667 0 81.067-34.133 98.133-102.4l29.867-247.467c17.067-132.267-46.933-196.267-170.667-196.267zM635.733 512v0h-4.267c-17.067 0-25.6-17.067-25.6-29.867 0-17.067 12.8-29.867 29.867-29.867v0h4.267c17.067 0 25.6 17.067 25.6 29.867 0 17.067-12.8 29.867-29.867 29.867z" />
<glyph unicode="&#xe917;" glyph-name="Bag-2" data-tags="Bag 2" d="M712.533 695.467h-8.533v8.533c-4.267 102.4-89.6 183.467-192 183.467-106.667 0-192-85.333-192-192h-8.533c-119.467 0-213.333-93.867-213.333-213.333v-234.667c0-119.467 93.867-213.333 213.333-213.333h405.333c119.467 0 213.333 93.867 213.333 213.333v234.667c0 115.2-98.133 213.333-217.6 213.333zM384 699.733c4.267 68.267 59.733 119.467 128 119.467 72.533 0 128-55.467 128-128h-256v8.533zM866.133 247.467c0-81.067-68.267-149.333-149.333-149.333h-405.333c-81.067 0-149.333 68.267-149.333 149.333v234.667c0 81.067 68.267 149.333 149.333 149.333h8.533v-72.533c0-17.067 17.067-25.6 29.867-25.6 17.067-4.267 34.133 12.8 34.133 29.867v68.267h256v-72.533c0-17.067 17.067-25.6 29.867-25.6 17.067 0 34.133 12.8 34.133 34.133v64h8.533c81.067 0 149.333-68.267 149.333-149.333v-234.667z" />
<glyph unicode="&#xe918;" glyph-name="Bookmark" data-tags="Bookmark" d="M639.39 874.667h-254.778c-132.488 0-213.945-63.97-213.945-189.199v-592.92c0.191-12.036 3.005-23.351 8.219-33.557l3.995-6.592 4.183-5.359c21.809-25.574 56.614-32.636 85.338-17.331l238.489 133.982 239.458-133.7c10.688-5.632 21.769-8.474 33.045-8.657 18.901-0.004 36.57 7.501 49.596 20.855s20.343 31.471 20.343 50.359v600.459c0 120.432-83.277 181.66-213.943 181.66zM384.612 812.896h254.778c100.877 0 153.698-38.832 153.698-119.889v-600.459c0-2.509-0.973-4.911-2.701-6.682s-4.070-2.765-6.515-2.765c-1.557 0.026-3.554 0.538-5.363 1.493l-239.053 133.457c-17.856 9.89-39.262 9.89-57.033 0.047l-238.386-133.897c-3.617-1.92-8.785-0.666-11.538 3.183l-1.599 2.654c0.308-0.439 0.253 0.090 0.157 1.003-0.060 0.572-0.135 1.293-0.147 2.018l0.004 592.408c0 86.978 51.507 127.428 153.698 127.428zM687.526 574.272c0 17.057-13.487 30.885-30.123 30.885l-297.1-0.282c-14.703-2.045-26.036-14.967-26.036-30.603 0-17.058 13.487-30.886 30.124-30.886l297.1 0.282c14.703 2.045 26.035 14.967 26.035 30.604z" />
<glyph unicode="&#xe919;" glyph-name="Buy" data-tags="Buy" d="M122.785 852.864l-4.328 0.453c-15.752 0.576-29.897-10.563-32.66-26.526l-0.453-4.329c-0.576-15.752 10.563-29.897 26.526-32.66l64.384-11.136 39.020-464.883 0.807-6.989c7.851-53.009 53.446-92.864 107.753-92.864l472.59 0.222c51.046 3.26 93.367 41.865 100.817 93.141l40.491 279.825 0.7 6.427c3.729 51.161-36.8 95.564-88.986 95.564h-601.469l-10.015 119.54-0.755 4.73c-2.92 12.302-12.921 21.917-25.676 24.125l-88.747 15.36zM318.888 278.199c-21.132 2.313-38.031 19.285-39.836 40.917l-25.698 305.993 599.852-0.276c13.474-2.003 23.206-14.601 21.188-28.551l-40.491-279.806-1.015-5.001c-5.133-19.567-22.861-33.545-43.473-33.545l-470.526 0.269zM252.087 81.694c0 35.674 28.914 64.64 64.597 64.64 35.678 0 64.64-28.962 64.64-64.64 0-35.682-28.966-64.597-64.64-64.597-35.679 0-64.597 28.919-64.597 64.597zM732.147 81.694c0 35.678 28.962 64.64 64.64 64.64s64.64-28.962 64.64-64.64c0-35.682-28.966-64.597-64.64-64.597s-64.64 28.915-64.64 64.597zM752.998 499.413c0 17.673-14.327 32-32 32h-118.315l-4.343-0.29c-15.62-2.121-27.657-15.509-27.657-31.71 0-17.673 14.327-32 32-32h118.315l4.339 0.29c15.62 2.121 27.661 15.509 27.661 31.71z" />
<glyph unicode="&#xe91a;" glyph-name="Calendar" data-tags="Calendar" d="M700.527 848.939l0.269-4.039v-33.647c121.306-8.317 195.588-86.724 195.2-213.313v-362.181c0-134.182-83.396-214.426-217.442-214.426h-333.114c-133.884 0-217.44 81.613-217.44 217.425v359.181c0 126.544 74.519 204.973 195.564 213.31v33.65c0 16.44 13.225 29.767 29.538 29.767 14.954 0 27.313-11.199 29.269-25.728l0.27-4.039v-32.911h259.079v32.911c0 16.44 13.227 29.767 29.538 29.767 14.955 0 27.315-11.199 29.269-25.728zM641.719 752.454h-259.079v-38.165c0-16.44-13.225-29.767-29.539-29.767-14.954 0-27.313 11.199-29.268 25.728l-0.27 4.039v37.28c-88.076-7.375-136.487-60.635-136.487-153.628v-17.147h649.843v17.239c0.286 93.052-47.863 146.199-136.124 153.543v-37.286c0-16.44-13.222-29.767-29.538-29.767-14.955 0-27.311 11.199-29.269 25.728l-0.269 4.039v38.165zM187.077 521.259v-282.5c0-102.511 56.7-157.892 158.363-157.892h333.114c102.016 0 158.366 54.225 158.366 154.893v285.5h-649.843zM716.851 396.019c0-15.070-11.115-27.524-25.532-29.495l-4.006-0.273c-16.678 0-29.905 13.329-29.905 29.769 0 15.070 11.115 27.524 25.532 29.495l4.373 0.273c16.311 0 29.538-13.329 29.538-29.769zM512.546 425.788l-4.373-0.273c-14.417-1.971-25.532-14.426-25.532-29.495 0-16.439 13.227-29.769 29.905-29.769l4.006 0.273c14.417 1.971 25.532 14.426 25.532 29.495 0 16.439-13.227 29.769-29.538 29.769zM366.952 396.019c0-15.070-11.113-27.524-25.53-29.495l-4.373-0.273c-16.314 0-29.538 13.329-29.538 29.769 0 15.070 11.113 27.524 25.53 29.495l4.373 0.273c16.314 0 29.539-13.329 29.539-29.769zM687.313 271.531l-4.373-0.273c-14.417-1.971-25.532-14.426-25.532-29.495 0-16.439 13.227-29.769 29.905-29.769l4.006 0.273c14.417 1.971 25.532 14.426 25.532 29.495 0 16.439-13.227 29.769-29.538 29.769zM542.084 241.762c0-15.070-11.115-27.524-25.532-29.495l-4.006-0.273c-16.678 0-29.905 13.329-29.905 29.769 0 15.070 11.115 27.524 25.532 29.495l4.373 0.273c16.311 0 29.538-13.329 29.538-29.769zM337.413 271.531l-4.373-0.273c-14.417-1.971-25.53-14.426-25.53-29.495 0-16.439 13.225-29.769 29.538-29.769l4.373 0.273c14.417 1.971 25.53 14.426 25.53 29.495 0 16.439-13.225 29.769-29.539 29.769z" />
<glyph unicode="&#xe91b;" glyph-name="Call" data-tags="Call" d="M276.072 874.593l1.136-0.073c22.353-1.853 41.767-12.961 59.489-30.277 33.679-32.893 106-128.88 111.457-155.002 6.046-29.142-0.418-48.069-19.678-81.551l-4.668-8.252c-8.838-16.143-10.19-22.808-7.453-30.441 42.052-102.921 113.817-174.673 215.564-216.231 9.634-3.49 16.909-1.489 37.274 10.193l10.624 6.012c28.629 15.701 46.771 20.663 73.527 15.091 26.031-5.457 122.074-77.82 154.914-111.458 17.293-17.702 28.425-37.154 30.366-60.975 2.044-57.911-68.617-139.447-111.723-163.964-49.015-35.063-111.223-34.483-180.971-2.018-182.396 75.895-461.397 353.118-535.749 535.287l-4.451 10.19c-28.233 67.477-27.621 125.774 4.732 169.724 29.521 48.888 109.114 116.356 165.609 113.743zM272.624 812.204l-3.761-0.193c-28.996-3.852-87.144-53.913-106.508-85.754l-3.345-4.978c-16.682-27.18-14.748-64.506 8.477-115.613l4.439-10.39c74.903-168.106 334.243-423.85 499.154-492.496l9.079-4.041c47.714-20.224 83.831-19.328 113.071 1.408l2.163 1.391c9.050 6.285 29.914 25.246 45.986 43.793 22.575 26.048 35.362 49.916 34.948 62.618-0.452 5.436-4.642 12.762-12.723 21.035-24.414 25.003-113.207 91.908-123.021 93.965-9.28 1.933-16.896-0.666-37.726-12.646l-10.479-5.884c-30.686-16.55-52.318-20.996-82.88-9.903-118.443 48.341-202.529 132.416-251.384 252.053-11.572 31.988-5.343 54.619 14.781 89.693l4.795 8.436c9.142 16.507 11.076 23.51 9.354 31.818-2.063 9.867-68.925 98.611-93.962 123.064-8.291 8.1-15.576 12.269-21.028 12.721l0.571-0.095z" />
<glyph unicode="&#xe91c;" glyph-name="Call-Missed" data-tags="Call Missed" d="M276.074 874.593l1.222-0.080c22.313-1.911 41.74-13.011 59.422-30.287 33.736-33.004 105.983-128.876 111.44-154.98 6.042-29.141-0.418-48.068-19.682-81.55l-4.666-8.251c-8.838-16.142-10.189-22.807-7.453-30.439 42.054-102.919 113.815-174.671 215.584-216.233 9.634-3.499 16.909-1.502 37.252 10.167l10.654 6.029c28.604 15.689 46.741 20.655 73.498 15.104 26.031-5.453 122.074-77.815 154.914-111.454 17.293-17.702 28.425-37.15 30.366-60.975 2.044-57.907-68.617-139.443-111.701-163.947-49.007-35.106-111.206-34.513-180.992-2.031-182.396 75.895-461.394 353.109-535.746 535.275l-4.451 10.191c-28.234 67.479-27.623 125.776 4.719 169.655 29.466 48.891 109.113 116.42 165.622 113.807zM272.585 812.204l-3.721-0.193c-29.004-3.855-87.174-53.946-106.517-85.807-20.174-27.499-19.534-66.235 5.141-120.532l4.439-10.39c74.902-168.103 334.24-423.839 499.151-492.489l9.088-4.041c47.735-20.237 83.836-19.345 113.067 1.412 7.377 4.228 30.613 24.947 48.145 45.18 22.575 26.048 35.362 49.916 34.948 62.618-0.448 5.436-4.642 12.762-12.723 21.035-24.414 25.003-113.207 91.908-122.995 93.956-9.276 1.924-16.9-0.674-37.717-12.651l-10.509-5.905c-30.682-16.542-52.335-20.983-82.884-9.873-118.438 48.346-202.527 132.416-251.382 252.050-11.572 31.987-5.343 54.618 14.781 89.692l4.794 8.436c9.142 16.506 11.076 23.509 9.354 31.816-2.059 9.85-68.886 98.529-93.962 123.061-8.264 8.074-15.579 12.254-21.114 12.728l0.615-0.102zM874.974 855.122c12.19 12.191 31.949 12.191 44.139 0 11.081-11.083 12.087-28.425 3.021-40.646l-3.021-3.501-102.775-102.794 102.775-102.794c12.19-12.191 12.19-31.956 0-44.147-11.081-11.083-28.42-12.090-40.64-3.023l-3.499 3.023-102.775 102.794-102.775-102.794c-12.19-12.191-31.949-12.191-44.139 0-11.081 11.083-12.087 28.425-3.021 40.646l3.021 3.501 102.775 102.794-102.775 102.794c-12.19 12.191-12.19 31.956 0 44.148 11.081 11.083 28.42 12.090 40.64 3.023l3.499-3.023 102.775-102.794 102.775 102.794z" />
<glyph unicode="&#xe91d;" glyph-name="Call-Silent" data-tags="Call Silent" d="M884.041 865.242c12.497 12.497 32.755 12.497 45.252 0 11.362-11.361 12.395-29.138 3.102-41.666l-3.102-3.589-403.021-403.023c30.656-25.621 66.219-46.775 106.014-63.177 8.171-3.008 14.656-1.779 30.217 6.711l8.555 4.838c33.613 19.328 52.779 25.843 81.749 19.738 26.441-5.171 122.918-77.811 155.588-111.667 17.237-17.924 28.292-37.252 30.242-60.996 2.287-58.526-68.629-140.378-111.817-164.629-48.998-35.337-111.398-34.816-181.141-2.334-81.677 33.796-186.018 110.025-285.364 205.559l-220.354-220.356c-12.497-12.493-32.758-12.493-45.255 0-11.361 11.362-12.393 29.141-3.098 41.668l3.098 3.588 361.972 361.971c0.23 0.247 0.465 0.486 0.704 0.725 0.23 0.23 0.461 0.457 0.695 0.678l425.963 425.959zM480.866 371.558l-75.285-75.285c93.833-90.061 191.744-161.557 265.835-192.243 48.563-22.596 85.278-24.286 115.046-6.31l5.862 3.857c27.443 15.548 83.46 80.205 82.449 106.923-0.422 5.077-4.518 12.237-12.471 20.51-23.795 24.653-112.495 91.439-122.231 93.35-8.107 1.707-14.985-0.188-31.305-9.22l-8.917-5.069c-34.752-19.908-57.732-26.108-90.807-13.901-48.508 19.968-91.371 45.79-128.175 77.389zM277.979 874.509c22.263-1.923 41.564-12.937 59.633-30.244 14.008-13.586 39.451-44.224 62.599-75.042l12.090-16.35c22.435-30.813 34.433-50.551 36.703-63.653 5.675-26.96 0.687-45.303-15.057-74.068l-6.259-11.082c-11.297-19.743-13.189-26.754-10.252-34.794 3.894-9.504 7.759-18.144 11.737-26.173 7.842-15.837 1.365-35.032-14.473-42.879-15.837-7.842-35.034-1.365-42.878 14.473-4.689 9.463-9.166 19.474-14.027 31.394-10.868 29.526-6.423 51.365 9.992 81.93l6.103 10.887c11.843 20.622 14.386 28.114 12.279 38.214l-0.911 1.689c-3.426 5.708-16.137 24.801-32.171 46.531l-4.074 5.481c-21.266 28.313-44.921 56.797-55.813 67.362-8.358 8.006-15.559 12.115-19.529 12.48-25.192 1.227-83.107-46.661-106.508-80.142l-3.569-5.436c-18.693-25.462-19.215-61.028 1.389-110.090l4.112-9.358c22.098-53.662 65.491-119.777 123.686-189.375 11.336-13.559 9.535-33.741-4.023-45.077s-33.74-9.536-45.076 4.023c-57.899 69.248-102.507 135.949-128.077 192.86l-5.186 12.043c-32.99 71.929-34.048 134.313 0.021 180.509 29.873 49.242 109.522 116.736 167.541 113.887z" />
<glyph unicode="&#xe91e;" glyph-name="Calling" data-tags="Calling" d="M276.287 874.513l-1.214 0.080c-56.185 2.614-135.472-64.943-164.769-113.806-32.145-43.907-32.763-102.216-4.692-169.661l4.425-10.185c73.969-182.165 351.53-459.379 532.987-535.275 69.427-32.482 131.302-33.075 180.058 2.031 42.863 24.503 113.156 106.039 111.125 163.947-1.929 23.825-13.005 43.273-30.208 60.979l-4.198 4.169-11.686 10.807c-42.317 37.841-115.584 91.716-138.244 96.478-26.607 5.547-44.651 0.58-73.109-15.108l-10.598-6.029c-20.237-11.669-27.473-13.666-37.060-10.167-101.244 41.562-172.634 113.314-214.472 216.233-2.72 7.625-1.375 14.285 7.425 30.432l4.637 8.233c19.183 33.501 25.613 52.439 19.571 81.601l-1.067 3.779c-9.911 28.852-70.651 110.255-104.376 145.693l-5.433 5.497c-17.576 17.261-36.903 28.361-59.101 30.272zM271.572 812.204l2.314-0.444c4.049-1.143 8.824-3.947 14.201-8.567l3.916-3.581 7.392-7.782c28.675-31.66 84.226-106.321 86.063-115.249 1.737-8.381-0.184-15.386-9.283-31.893l-4.76-8.416c-20.036-35.084-26.238-57.707-14.724-89.698 48.603-119.634 132.256-203.704 250.088-252.050 30.387-11.11 51.934-6.669 82.453 9.873l10.458 5.905c20.71 11.977 28.292 14.575 37.521 12.651 9.020-1.894 89.728-62.468 119.317-90.935l3.456-3.435c7.629-7.859 11.802-15.185 12.25-20.621 0.41-12.702-12.309-36.57-34.769-62.618-15.987-18.543-36.749-37.504-45.747-43.789l-2.15-1.391c-29.082-20.757-64.998-21.649-112.486-1.412l-9.041 4.041c-164.058 68.651-422.064 324.386-496.58 492.489l-4.416 10.39c-23.089 51.071-25.005 88.408-8.426 115.574l3.325 4.975c19.216 31.817 77.125 81.932 105.958 85.789l3.671 0.193zM615.326 864.268l4.22-0.184c167.667-18.715 300.079-151.678 318.925-320.23 1.916-17.134-10.347-32.583-27.388-34.508-17.041-1.929-32.41 10.402-34.325 27.534-15.603 139.563-125.235 249.655-264.064 265.15-17.045 1.903-29.329 17.335-27.435 34.471 1.574 14.28 12.497 25.235 25.958 27.389l4.109 0.377zM617.869 716.759l4.19-0.531c85.687-16.792 152.649-84.113 169.353-170.264 3.281-16.923-7.706-33.316-24.538-36.614s-33.135 7.748-36.416 24.669c-11.861 61.193-59.413 109.001-120.282 120.928-16.832 3.298-27.814 19.69-24.533 36.613 2.735 14.102 14.511 24.122 28.1 25.161l4.126 0.038z" />
<glyph unicode="&#xe91f;" glyph-name="Camera" data-tags="Camera" d="M411.595 832h200.808c42.099-0.294 75.264-22.167 94.498-60.049 2.761-5.405 6.050-12.050 10.010-20.216l27.447-57.709c1.506-3.179 4.685-5.191 9.033-5.202l9.020-0.246c98.598-5.153 176.256-86.647 176.256-185.657v-253.005c0-102.656-83.332-185.916-186.112-185.916h-481.067c-102.814 0-186.155 83.251-186.155 185.916v253.005c0 102.691 83.327 185.914 184.113 185.849l3.194 0.138c3.043 0.391 5.72 2.327 7.030 5.091l20.959 44.233 16.45 33.676c19.328 37.951 52.438 59.799 94.516 60.093zM612.181 768.068l-200.139 0.001c-17.378-0.121-29.12-7.869-37.916-25.14-2.569-5.048-5.712-11.423-9.548-19.351l-27.046-56.898c-10.671-22.526-32.102-38.022-58.774-41.379l-7.271-0.399c-67.484 0-122.155-54.602-122.155-121.981v-253.005c0-67.354 54.686-121.984 122.155-121.984h481.067c67.43 0 122.112 54.635 122.112 121.984v253.005c0 64.957-50.961 118.433-114.761 121.779l-13.824 0.488c-25.673 2.273-48.422 17.952-59.584 41.52l-29.807 62.533-6.831 13.714c-8.751 17.236-20.51 24.993-37.679 25.114zM344.389 391.305c-0.744 91.789 75.158 167.954 167.803 167.849l8.614-0.229c88.465-4.604 158.967-78.127 158.814-167.715-0.158-92.156-75.332-167.3-167.535-167.403-92.362-0.055-167.75 75.401-167.696 167.497zM615.62 391.322c0.098 57.173-46.421 103.834-103.505 103.898l-6.801-0.213c-53.986-3.516-97.364-49.229-96.926-103.458-0.032-57.067 46.703-103.842 103.642-103.808 56.892 0.064 103.492 46.643 103.59 103.582zM708.429 494.605c4.561-1.835 8.631-2.906 12.753-3.328l4.16-0.213 4.233 0.209c9.801 0.973 18.987 5.299 25.98 12.335 8.094 8.585 12.454 18.901 12.454 30.059 0 5.808-1.19 11.564-3.546 16.858l-0.969 2.49c-1.643 3.512-4.595 7.677-8.102 11.129-11.699 11.683-30.421 15.406-46.161 9.175-5.308-2.336-9.19-4.989-12.979-8.287-4.983-4.847-7.74-9.304-10.065-14.587-2.321-5.215-3.511-10.971-3.511-16.779 0-10.936 4.416-21.534 12.045-29.637 4.245-4.309 8.636-7.172 13.709-9.425z" />
<glyph unicode="&#xe920;" glyph-name="Category" data-tags="Category" d="M341.908 874.667h-129.61c-70.18 0-126.965-57.277-126.965-127.809v-130.735c0-70.502 56.797-127.807 126.965-127.807h129.61c70.168 0 126.964 57.304 126.964 127.807v130.735c0 70.531-56.784 127.809-126.964 127.809zM212.298 815.132h129.61c37.184 0 67.43-30.508 67.43-68.274v-130.735c0-37.741-30.262-68.274-67.43-68.274h-129.61c-37.168 0-67.43 30.533-67.43 68.274v130.735c0 37.766 30.246 68.274 67.43 68.274zM811.742 874.667h-129.651c-70.178 0-126.963-57.277-126.963-127.809v-130.735c0-70.502 56.798-127.807 126.963-127.807h129.651c70.135 0 126.925 57.312 126.925 127.807v130.735c0 70.523-56.777 127.809-126.925 127.809zM682.091 815.132h129.651c37.15 0 67.392-30.513 67.392-68.274v-130.735c0-37.736-30.259-68.274-67.392-68.274h-129.651c-37.167 0-67.43 30.533-67.43 68.274v130.735c0 37.766 30.246 68.274 67.43 68.274zM212.298 407.684h129.61c70.188 0 126.964-57.284 126.964-127.846v-130.697c0-70.532-56.784-127.808-126.964-127.808h-129.61c-70.18 0-126.965 57.276-126.965 127.808v130.697c0 70.562 56.777 127.846 126.965 127.846zM341.908 348.151h-129.61c-37.189 0-67.43-30.511-67.43-68.314v-130.697c0-37.764 30.246-68.275 67.43-68.275h129.61c37.184 0 67.43 30.511 67.43 68.275v130.697c0 37.803-30.241 68.314-67.43 68.314zM811.742 407.684h-129.651c-70.187 0-126.963-57.284-126.963-127.846v-130.697c0-70.532 56.785-127.808 126.963-127.808h129.651c70.148 0 126.925 57.284 126.925 127.808v130.697c0 70.554-56.768 127.846-126.925 127.846zM682.091 348.151h129.651c37.154 0 67.392-30.515 67.392-68.314v-130.697c0-37.76-30.242-68.275-67.392-68.275h-129.651c-37.184 0-67.43 30.511-67.43 68.275v130.697c0 37.803 30.242 68.314 67.43 68.314z" />
<glyph unicode="&#xe921;" glyph-name="Chart" data-tags="Chart" d="M697.975 874.667h-371.951c-144.441 0-240.691-103.249-240.691-251.442v-350.448c0-148.331 95.997-251.443 240.691-251.443h371.951c144.695 0 240.691 103.113 240.691 251.443v350.448c0 148.332-95.996 251.442-240.691 251.442zM326.025 815.132h371.951c110.827 0 181.158-75.542 181.158-191.907v-350.448c0-116.365-70.332-191.91-181.158-191.91h-371.951c-110.826 0-181.156 75.546-181.156 191.91v350.448c0 116.21 70.566 191.907 181.156 191.907zM543.006 653.699c-1.971 14.529-14.426 25.728-29.495 25.728-16.439 0-29.764-13.327-29.764-29.767v-402.564l0.269-4.041c1.971-14.528 14.426-25.728 29.495-25.728 16.444 0 29.769 13.329 29.769 29.769v402.564l-0.273 4.039zM357.788 523.413c-1.971 14.529-14.426 25.728-29.496 25.728-16.44 0-29.767-13.327-29.767-29.769v-272.277l0.272-4.041c1.971-14.528 14.426-25.728 29.495-25.728 16.44 0 29.768 13.329 29.768 29.769v272.277l-0.272 4.041zM695.706 405.261c15.074 0 27.529-11.2 29.5-25.728l0.269-4.041v-128.397c0-16.439-13.325-29.769-29.769-29.769-15.070 0-27.524 11.2-29.495 25.728l-0.269 4.041v128.397c0 16.439 13.325 29.769 29.764 29.769z" />
<glyph unicode="&#xe922;" glyph-name="Chat" data-tags="Chat" d="M514.475 874.656c-149.83 0.602-288.958-77.089-366.823-204.794-77.874-127.722-83.102-286.83-13.779-419.374l7.843-15.287c2.999-5.619 3.577-11.682 1.839-17.289-11.202-29.602-21.044-61.568-28.897-94.050l-0.834-6.997c0-32.657 17.425-55.095 52.009-54.327l5.758 0.691c31.416 6.938 62.354 15.876 92.627 26.761 4.012 1.015 10.585 0.623 16.516-1.805l29.121-16.482c0.066-0.201 0.115-0.354 0.42-0.533l1.954-0.683c156.801-82.449 348.302-59.703 481.358 57.178 133.077 116.898 180.062 303.693 118.093 469.504-61.961 165.796-219.989 276.186-397.205 277.488zM502.080 814.974l11.985 0.188c152.521-1.16 288.533-96.17 341.85-238.836 53.312-142.649 12.89-303.348-101.619-403.935l-9.391-7.979c-110.767-90.944-264.555-109.274-393.643-46.942l-12.276 6.153 0.526-0.068-0.777 0.209-18.019 10.342c-6.488 3.665-11.635 6.443-15.783 8.439-19.761 8.149-39.821 9.348-58.689 4.156l-17.861-6.135c-11.805-3.9-23.424-7.424-34.986-10.607l-16.856-4.403-4.015-15.684c7.28 30.11 16.404 59.742 27.321 88.738 7.025 22.477 4.876 44.996-5.391 64.209l-7.72 15.053c-59.748 114.24-55.251 251.115 11.748 360.998 64.914 106.465 179.327 172.55 303.596 176.105zM276.25 447.991c0 26.889 21.814 48.666 48.698 48.666s48.698-21.777 48.698-48.666c0-26.889-21.814-48.67-48.698-48.67s-48.698 21.781-48.698 48.67zM465.557 447.991c0 26.889 21.811 48.666 48.695 48.666s48.7-21.777 48.7-48.666c0-26.889-21.815-48.67-48.7-48.67s-48.695 21.781-48.695 48.67zM703.561 496.657c-26.884 0-48.695-21.777-48.695-48.666s21.811-48.67 48.695-48.67c26.884 0 48.7 21.781 48.7 48.67s-21.815 48.666-48.7 48.666z" />
<glyph unicode="&#xe923;" glyph-name="Close-Square" data-tags="Close Square" d="M696.939 874.659h-369.878c-144.963 0-241.707-103.791-241.707-252.416v-348.502c0-148.766 96.485-252.416 241.707-252.416h369.835c145.263 0 241.792 103.65 241.792 252.416v348.502c0 148.757-96.521 252.416-241.749 252.416zM327.061 810.659h369.878c108.821 0 177.749-74.025 177.749-188.416v-348.502c0-114.394-68.932-188.416-177.792-188.416h-369.835c-108.81 0-177.707 74.014-177.707 188.416v348.502c0 114.245 69.135 188.416 177.707 188.416zM387.017 573.338c11.362 11.36 29.14 12.39 41.668 3.094l3.588-3.099 79.689-79.705 79.62 79.618c12.497 12.497 32.755 12.497 45.252 0 11.362-11.361 12.395-29.138 3.098-41.666l-3.098-3.588-79.625-79.625 79.693-79.706c12.493-12.497 12.493-32.759-0.004-45.257-11.362-11.358-29.141-12.39-41.668-3.093l-3.588 3.098-79.684 79.706-79.582-79.582c-12.496-12.497-32.757-12.497-45.254 0-11.361 11.362-12.393 29.137-3.098 41.664l3.098 3.588 79.584 79.586-79.693 79.71c-12.495 12.5-12.493 32.761 0.005 45.257z" />
<glyph unicode="&#xe924;" glyph-name="Danger" data-tags="Danger" d="M613.542 776.623c-33.818 52.995-103.893 71.324-159.991 40.234-19.789-10.879-36.19-27.264-47.183-47.156l-310.262-543.004-2.761-7.305c-21.932-63.437 7.811-129.583 67.242-153.792l9.515-3.388c9.62-2.982 19.539-4.762 29.609-5.325l3.552 0.073 1.353-0.124 625.408 0.61c64.461 7.13 111.799 62.11 108.501 126.217-0.768 13.687-3.716 26.953-8.806 39.326l-316.177 553.634zM484.48 760.826c27.499 15.241 61.99 5.325 77.158-22.094l310.703-543.788 0.922-4.16c0.55-2.85 1.135-6.656 1.357-10.556 1.6-31.134-22.46-57.796-53.777-59.435l-617.536-0.004-6.427 0.7c-4.222 0.695-8.329 1.843-12.265 3.43-28.899 11.772-42.857 44.843-31.074 73.86l308.621 539.567 3.494 5.579c5.009 7.099 11.405 12.822 18.825 16.9zM480.013 265.83c0 17.664 14.336 32.256 32 32.256s32-14.123 32-31.787v-0.469c0-17.664-14.336-32-32-32s-32 14.336-32 32zM543.275 525.043c-2.116 15.618-15.505 27.656-31.706 27.656-17.673 0-32-14.327-32-32v-132.267l0.29-4.343c2.121-15.62 15.509-27.657 31.71-27.657 17.673 0 32 14.327 32 32v132.267l-0.294 4.343z" />
<glyph unicode="&#xe925;" glyph-name="Delete" data-tags="Delete" d="M866.133 725.333h-140.8c-17.067 0-29.867 12.8-29.867 29.867l-12.8 51.2v8.533c-12.8 34.133-42.667 59.733-81.067 59.733h-183.467c-38.4-4.267-68.267-29.867-76.8-64l-8.533-55.467v-4.267c-8.533-12.8-21.333-25.6-38.4-25.6h-140.8c-12.8 0-25.6-17.067-25.6-29.867 0-21.333 12.8-34.133 29.867-34.133h712.533c17.067 0 25.6 17.067 25.6 29.867 0 21.333-12.8 34.133-29.867 34.133zM388.267 725.333c4.267 4.267 4.267 12.8 4.267 17.067l8.533 51.2v4.267c4.267 8.533 12.8 12.8 21.333 12.8h179.2c8.533 0 17.067-8.533 17.067-17.067l8.533-51.2v-8.533c0-4.267 4.267-8.533 4.267-12.8h-243.2zM810.667 588.8v0c-21.333 0-34.133-12.8-34.133-29.867l-12.8-166.4-12.8-132.267c0-21.333-4.267-38.4-4.267-55.467l-4.267-55.467c-4.267-42.667-25.6-64-68.267-64-110.933 0-221.867 0-324.267 0-38.4 0-59.733 21.333-64 64-4.267 34.133-8.533 81.067-12.8 136.533l-12.8 132.267-8.533 128v12.8c-8.533 21.333-21.333 29.867-38.4 29.867s-29.867-17.067-29.867-34.133l12.8-136.533 8.533-115.2 8.533-102.4 4.267-55.467c8.533-72.533 55.467-119.467 123.733-119.467 106.667-4.267 213.333-4.267 328.533 0 72.533 0 119.467 46.933 128 119.467 4.267 21.333 4.267 46.933 8.533 81.067l12.8 162.133 12.8 166.4v8.533c4.267 8.533-8.533 21.333-21.333 25.6z" />
<glyph unicode="&#xe926;" glyph-name="Discount" data-tags="Discount" d="M420.896 836.794c48.057 48.276 124.964 50.402 174.359 7.305l7.778-7.253 30.669-30.667c10.53-10.484 24.35-16.948 39.049-18.4l6.345-0.313h43.861c68.429 0 124.382-53.511 128.294-120.962l0.218-7.55v-43.819c0-14.925 5.146-29.273 14.43-40.681l4.228-4.702 30.669-30.669c48.277-48.062 50.436-124.913 6.208-175.563l-5.773-6.191-31.078-31.078c-10.449-10.475-16.917-24.303-18.372-38.985l-0.311-6.34v-43.904c0-68.425-53.508-124.343-120.964-128.252l-7.548-0.218h-43.861c-14.874 0-29.239-5.167-40.653-14.477l-4.706-4.241-30.626-30.583c-48.009-48.337-124.919-50.479-175.586-6.234l-6.577 6.157-30.597 30.596c-10.598 10.522-24.441 17.011-39.097 18.47l-6.324 0.311h-43.904c-68.4 0-124.343 53.483-128.251 120.922l-0.218 7.548v43.904c0 14.848-5.175 29.227-14.48 40.623l-4.238 4.693-30.598 30.639c-48.323 48.051-50.467 124.962-6.22 175.582l5.772 6.185 30.981 31.023c10.537 10.612 17.014 24.428 18.469 39.12l0.313 6.344v43.819l0.218 7.549c3.764 64.946 55.782 116.979 120.705 120.745l7.546 0.218h43.904c14.868 0 29.237 5.158 40.631 14.424l4.694 4.22 30.642 30.685zM559.147 790.3l-1.698 1.58c-23.65 23.542-61.022 24.92-86.336 4.171l-4.894-4.445-30.775-30.816c-22.068-21.913-51.257-35.015-82.073-37.047l-8.44-0.278h-43.904c-33.603 0-61.239-25.777-64.206-58.642l-0.264-5.87v-43.819c0-31.111-11.29-61.027-31.654-84.413l-5.777-6.208-31.026-31.070c-23.544-23.65-24.915-61.013-4.108-86.357l4.457-4.902 30.688-30.733c21.948-21.999 35.101-51.238 37.141-82.078l0.279-8.448v-43.904c0-33.621 25.758-61.239 58.603-64.205l5.866-0.265h43.904c31.052 0 60.994-11.302 84.382-31.667l6.212-5.781 30.861-30.861c23.817-23.684 61.193-25.062 86.515-4.254l4.894 4.454 30.758 30.716c22.046 21.943 51.251 35.076 82.095 37.116l8.448 0.277h43.861c33.651 0 61.282 25.745 64.247 58.603l0.265 5.867v43.904c0 31.1 11.298 61.094 31.633 84.373l5.773 6.178 31.040 31.040c23.543 23.68 24.905 61.022 4.13 86.362l-4.45 4.898-30.801 30.801c-21.926 22.082-35.017 51.242-37.047 82.102l-0.277 8.455v43.819c0 33.639-25.775 61.281-58.641 64.248l-5.871 0.264h-43.861c-31.113 0-61.065 11.281-84.399 31.631l-6.195 5.774-29.355 29.43zM598.899 315.631c5.973-5.973 14.080-9.387 22.613-9.387s16.64 3.413 22.613 9.387c2.987 2.987 5.547 6.827 7.253 10.667 1.28 3.84 2.133 7.637 2.133 11.947 0 4.267-0.853 8.533-2.133 12.373-1.707 3.84-4.267 7.253-7.253 10.24-11.947 11.947-33.28 11.947-45.227 0-2.987-2.987-5.12-6.4-6.827-10.24s-2.56-8.107-2.56-12.373c0-4.309 0.853-8.107 2.56-11.947s3.84-7.68 6.827-10.667zM402.201 525.534c-4.267 0-8.107 0.896-11.947 2.603s-7.68 3.797-10.667 6.785c-2.987 3.413-5.12 6.827-6.827 10.667-1.707 3.883-2.56 7.68-2.56 11.947 0 4.309 0.853 8.533 2.56 12.373s3.84 7.68 6.827 10.24c12.373 11.989 33.28 11.989 45.227 0 5.974-5.931 9.387-14.080 9.387-22.613 0-4.267-0.427-8.064-2.133-11.947-1.707-3.84-4.267-7.253-7.254-10.667-2.987-2.988-6.4-5.078-10.24-6.785s-8.107-2.603-12.373-2.603zM644.279 580.303c-12.497 12.497-32.755 12.497-45.252 0l-219.308-219.309-3.098-3.588c-9.295-12.527-8.262-30.302 3.098-41.664 12.497-12.497 32.758-12.497 45.255 0l219.306 219.306 3.098 3.589c9.297 12.527 8.265 30.305-3.098 41.666z" />
<glyph unicode="&#xe927;" glyph-name="Discovery" data-tags="Discovery" d="M512 874.667c-235.642 0-426.667-191.025-426.667-426.667 0-235.639 191.025-426.667 426.667-426.667 235.639 0 426.667 191.027 426.667 426.667 0 235.642-191.027 426.667-426.667 426.667zM512 812.896c201.527 0 364.898-163.37 364.898-364.896s-163.371-364.898-364.898-364.898c-201.527 0-364.896 163.371-364.896 364.898s163.37 364.896 364.896 364.896zM640.358 615.057l-209.579-65.587c-9.66-3.023-17.226-10.59-20.25-20.25l-65.587-209.579c-7.445-23.791 14.909-46.144 38.7-38.699l209.577 65.587c9.66 3.025 17.225 10.59 20.25 20.25l65.587 209.577c7.445 23.791-14.908 46.145-38.699 38.7zM602.47 538.515l-43.153-137.832-137.832-43.153 43.159 137.826 137.826 43.159z" />
<glyph unicode="&#xe928;" glyph-name="Document" data-tags="Document" d="M347.209 21.333c-17.579 0-34.261 1.365-49.963 4.053l-9.301 1.749c-101.163 21.035-159.957 98.517-159.957 216.448v408.832c0 14.251 0.853 27.904 2.56 40.96 14.891 114.56 93.611 181.291 216.661 181.291h329.6c136.363 0 217.899-81.92 219.179-218.965v-412.117c0-138.965-81.749-222.251-219.179-222.251h-329.6zM347.209 812.501c-104.789 0-157.909-53.888-157.909-160.085v-408.832c0-106.197 53.12-160.085 157.909-160.085h329.216c104.747 0 157.525 53.888 157.525 160.085v408.832c0 106.197-52.779 160.085-157.525 160.085h-329.216zM695.71 267.349c0 17.067-13.611 30.891-30.421 30.891h-307.669c-16.811 0-30.464-13.824-30.464-30.891s13.653-30.891 30.464-30.891h307.669c16.811 0 30.421 13.824 30.421 30.891zM665.289 479.104c11.733 1.28 23.211-4.352 29.483-14.464 6.272-10.197 6.272-23.083 0-33.28-6.272-10.112-17.749-15.744-29.483-14.464h-307.669c-15.616 1.792-27.435 15.147-27.435 31.104s11.819 29.355 27.435 31.104h307.669zM502.473 628.437c0 15.957-11.819 29.355-27.435 31.104h-117.035c-15.659-1.749-27.477-15.147-27.477-31.104 0-15.915 11.819-29.312 27.477-31.061h117.035c15.616 1.749 27.435 15.147 27.435 31.061z" />
<glyph unicode="&#xe929;" glyph-name="Download" data-tags="Download" d="M485.214 815.143v-436.229l-69.742 69.978-3.583 3.102c-12.509 9.323-30.288 8.329-41.672-3.012-12.523-12.471-12.564-32.73-0.093-45.252l124.51-125.013c1.054-1.045 2.176-2.022 3.366-2.914l0.132-0.115c12.548-9.34 30.383-8.303 41.754 3.115l124.416 124.928 3.093 3.593c9.267 12.548 8.201 30.323-3.187 41.66l-3.593 3.093c-12.548 9.267-30.323 8.201-41.66-3.183l-69.743-70.003v436.255l-0.29 4.342c-2.121 15.619-15.509 27.658-31.71 27.658-17.673 0-32-14.327-32-32zM763.959 58.999c100.16 4.642 179.913 87.287 179.913 188.595v208.384l-0.205 8.909c-4.651 100.397-87.458 180.319-188.979 180.319h-39.808l-4.343-0.292c-15.616-2.119-27.657-15.507-27.657-31.708 0-17.673 14.327-32 32-32h39.808l7.36-0.212c65.728-3.807 117.824-58.293 117.824-125.015v-208.384l-0.213-7.334c-3.793-65.523-58.108-117.466-124.587-117.466l-482.664 0.213c-65.73 3.81-117.869 58.33-117.869 125.013v208.427l0.212 7.33c3.797 65.476 58.141 117.428 124.588 117.428h40.192l4.342 0.292c15.619 2.119 27.658 15.507 27.658 31.708 0 17.673-14.327 32-32 32h-40.192l-9.146-0.218c-100.004-4.771-179.654-87.367-179.654-188.541v-208.427l0.206-8.905c4.652-100.365 87.506-180.322 189.021-180.322l484.194 0.205z" />
<glyph unicode="&#xe92a;" glyph-name="Edit" data-tags="Edit" d="M169.33 366.263c-22.929-22.477-36.195-52.774-37.045-84.557l-4.276-168.141c-0.394-15.475 12.297-28.228 28.089-28.228h169.996c33.589 0 65.77 13.056 89.506 36.322l415.095 406.895c53.197 52.145 53.197 136.723 0 188.868l-55.228 54.135c-53.193 52.145-139.477 52.145-192.674 0l-413.463-405.294zM790.959 678.472c31.249-30.633 31.249-80.333 0-110.967l-32.081-31.447-168.448 165.084 32.098 31.464c31.253 30.633 81.954 30.633 113.203 0l55.228-54.135zM209.066 327.309l341.629 334.883 168.448-165.082-343.279-336.499-4.566-4.096c-12.611-10.359-28.589-16.090-45.204-16.090l-141.2 0.017 3.568 139.857c0.472 17.647 7.859 34.517 20.604 47.010zM896 112.875c0-13.943-10.569-25.468-24.286-27.29l-296.951-0.252c-15.518 0-28.096 12.331-28.096 27.541 0 13.943 10.569 25.468 24.282 27.294l296.956 0.252c15.518 0 28.096-12.335 28.096-27.546z" />
<glyph unicode="&#xe92b;" glyph-name="Edit-Square" data-tags="Edit Square" d="M349.563 523.2l313.579 313.058c51.354 51.212 134.579 51.212 185.929 0l51.076-50.993c51.358-51.272 51.358-134.428 0-185.644l-315.076-314.557c-22.985-22.946-54.153-35.844-86.66-35.844h-157.184c-17.687 0-31.9 14.549-31.461 32.201l3.945 158.357c0.791 31.36 13.622 61.227 35.852 83.422zM855.646 740.834l-51.055 50.969c-26.778 26.705-70.191 26.705-96.956 0.012l-25.796-25.753 148.011-147.762 25.805 25.765c26.761 26.688 26.761 70.041-0.009 96.769zM785.344 573.868l-148.011 147.761-243.265-242.863c-10.812-10.795-17.053-25.323-17.437-40.563l-3.171-126.11 124.95-0.038c13.833 0 27.17 4.804 37.781 13.487l4.373 3.955 244.779 244.371zM483.618 873.050c17.382 0 31.471-14.066 31.471-31.418 0-15.906-11.84-29.051-27.2-31.131l-4.271-0.287h-156.888c-105.805 0-174.337-70.071-178.277-178.886l-0.18-9.999v-348.276c0-111.287 65.2-184.482 168.922-188.693l9.535-0.192h370.256c106.069 0 174.391 69.922 178.321 178.871l0.179 10.014v168.734c0 17.353 14.089 31.42 31.467 31.42 15.932 0 29.099-11.823 31.185-27.157l0.286-4.262v-168.734c0-145.028-92.019-247.002-231.62-251.563l-9.818-0.158h-370.256c-141.757 0-236.992 98.684-241.248 241.673l-0.149 10.048v348.276c0 144.887 92.256 246.994 231.599 251.56l9.798 0.16h156.888z" />
<glyph unicode="&#xe92c;" glyph-name="Filter" data-tags="Filter" d="M331.089 694.88c0 46.377-38.199 84.132-85.231 84.132-46.983 0-85.232-37.755-85.232-84.132s38.249-84.132 85.232-84.132c47.033 0 85.231 37.755 85.231 84.132zM406.382 694.88c0-87.353-71.98-158.454-160.524-158.454-88.494 0-160.524 71.101-160.524 158.454s72.030 158.454 160.524 158.454c88.544 0 160.524-71.101 160.524-158.454zM938.667 694.869c0 20.513-16.866 37.161-37.645 37.161h-308.702c-20.783 0-37.645-16.648-37.645-37.161s16.862-37.161 37.645-37.161h308.702c20.779 0 37.645 16.648 37.645 37.161zM692.894 201.122c0-46.379 38.199-84.134 85.235-84.134 47.031 0 85.231 37.756 85.231 84.134 0 46.426-38.199 84.13-85.231 84.13-47.036 0-85.235-37.705-85.235-84.13zM617.604 201.122c0 87.403 71.979 158.451 160.525 158.451 88.542 0 160.521-71.049 160.521-158.451 0-87.356-71.979-158.455-160.521-158.455-88.546 0-160.525 71.1-160.525 158.455zM123.015 238.298h308.652c20.779 0 37.645-16.649 37.645-37.163s-16.866-37.158-37.645-37.158h-308.652c-20.781 0-37.647 16.644-37.647 37.158s16.866 37.163 37.647 37.163z" />
<glyph unicode="&#xe92d;" glyph-name="Filter-2" data-tags="Filter 2" d="M139.611 917.333h744.78c53.786 0 96.943-44.524 96.943-98.994v-72.59c0-26.453-10.3-51.805-28.668-70.326l-317.589-322.007 0.026-243.823c0-11.098-5.606-21.321-14.699-27.324l-4.1-2.3-208.529-98.146c-21.717-10.223-46.688 5.623-46.688 29.623l-0.014 342.711-292.552 322.585c-14.802 16.288-23.716 37.105-25.514 59.064l-0.338 8.282v74.25c0 54.471 43.157 98.994 96.944 98.994zM884.39 851.848h-744.78c-17.154 0-31.456-14.755-31.456-33.509v-74.25c0-8.761 3.187-17.095 8.852-23.328l301.077-331.961c5.463-6.025 8.489-13.867 8.489-21.999l-0.014-303.706 143.028 67.277 0.026 236.429c0 6.886 2.167 13.547 6.127 19.072l3.302 3.917 327.057 331.679c6.191 6.243 9.745 14.99 9.745 24.28v72.59c0 18.754-14.302 33.509-31.454 33.509z" />
<glyph unicode="&#xe92e;" glyph-name="Folder" data-tags="Folder" d="M400.409 874.667h-82.423c-158.843 0-232.653-92.819-232.653-265.748v-321.836c0-164.89 100.844-265.749 265.773-265.749h321.035c164.612 0 265.395 100.919 265.395 265.749l1.131 204.838c0 172.709-72.081 257.251-233.404 257.251h-116.672c-19.853 0.040-38.592 9.423-50.573 25.35l-37.619 50.103c-23.586 31.491-60.642 50.042-99.99 50.042zM317.986 812.737h82.423c19.882 0 38.605-9.373 50.535-25.3l37.658-50.152c23.65-31.447 60.634-49.964 99.925-50.042h116.736c124.804 0 171.558-54.835 171.558-195.151l-1.131-204.838c0-130.799-73.092-203.989-203.55-203.989h-321.035c-130.788 0-203.925 73.148-203.925 203.819v321.836c0 141.429 49.612 203.819 170.805 203.819zM739.947 339.465c0 17.101-13.841 30.963-30.921 30.963l-399.752-0.282c-15.094-2.048-26.728-15.006-26.728-30.682 0-17.101 13.845-30.963 30.924-30.963l399.75 0.282c15.095 2.048 26.726 15.006 26.726 30.682z" />
<glyph unicode="&#xe92f;" glyph-name="Game" data-tags="Game" d="M701.163 82.231c100.224 2.133 180.139 85.632 177.92 186.069v185.259c0.085 4.48 0.043 8.448-0.128 12.416-4.309 99.755-84.907 174.165-187.947 174.165-0.474 0-0.913-0.018-1.382-0.038-0.542-0.023-1.126-0.047-1.86-0.047h-351.445c-5.376 0.213-9.259 0.256-13.141 0.171-48.768-1.067-94.080-20.949-127.701-56.149-33.707-35.115-51.627-81.237-50.56-129.92v-185.173c-0.085-4.608-0.043-8.619 0.128-12.544 4.395-100.395 88.789-178.901 189.909-174.080 116.010-1.963 233.898-1.963 352.256 0.043 5.803-0.256 9.899-0.299 13.952-0.171zM687.552 699.575c135.808 1.109 245.163-99.712 250.88-230.997 0.213-5.163 0.256-10.453 0.171-15.701v-183.893c2.901-132.608-103.083-243.371-236.288-246.315-5.461-0.128-10.624 0-15.829 0.213-58.795-1.024-117.931-1.536-176.768-1.536-58.496 0-116.693 0.512-173.952 1.493-131.371-5.589-244.352 97.835-250.197 230.912-0.256 5.248-0.256 10.539-0.171 15.829v183.979c-1.408 63.872 22.4 125.056 67.072 171.691 44.629 46.677 104.747 73.131 169.301 74.496 5.248 0.171 10.624 0.128 16-0.213l168.746 0.043v9.856c-0.384 28.843-24.363 52.437-53.547 52.437h-43.349c-45.397 0-82.773 36.992-83.285 82.688-0.171 16.469 13.056 29.909 29.44 30.080 14.677 0.683 29.952-13.013 30.080-29.44 0.128-13.141 10.923-23.765 24.021-23.765h43.306c61.44 0 112.043-49.877 112.853-111.616v-10.24h121.515zM387.405 465.694c15.903 0 29.045-11.622 31.125-26.697l0.287-4.19v-43.371h44.112c17.348 0 31.411-13.828 31.411-30.886 0-15.633-11.814-28.557-27.149-30.601l-4.262-0.282h-44.112v-43.375c0-17.054-14.064-30.882-31.412-30.882-15.903 0-29.046 11.618-31.126 26.692l-0.287 4.19v43.375h-44.111c-17.349 0-31.412 13.824-31.412 30.882 0 15.637 11.817 28.561 27.15 30.605l4.263 0.282h44.111v43.371c0 17.058 14.064 30.886 31.412 30.886zM676.442 430.285c0 17.058-14.063 30.886-31.411 30.886h-4.22l-4.262-0.286c-15.33-2.044-27.149-14.963-27.149-30.601 0-17.058 14.063-30.886 31.411-30.886h4.22l4.262 0.282c15.33 2.048 27.149 14.967 27.149 30.605zM716.719 319.441c17.348 0 31.411-13.828 31.411-30.886 0-15.633-11.814-28.557-27.149-30.601l-4.262-0.282h-4.215c-17.348 0-31.411 13.828-31.411 30.882 0 15.637 11.814 28.561 27.149 30.605l4.262 0.282h4.215z" />
<glyph unicode="&#xe930;" glyph-name="Graph" data-tags="Graph" d="M572.715 874.622c-16.026 0.616-31.962-5.142-43.968-16.016-9.562-8.659-16.055-20.043-18.581-32.504l-0.943-7.028-0.213-6.237 18.953-278.372c2.364-35.482 33.596-62.495 69.939-60.438l283.541 18.487c16.593 1.199 31.799 8.717 42.483 20.902 8.503 9.707 13.619 21.785 14.643 34.485l0.098 8.612-0.41 4.943c-29.333 176.607-182.694 307.992-365.542 313.164zM572.215 812.842l9.276-0.439c144.35-8.751 264.666-111.824 292.553-250.633l1.399-7.68-281.463-18.411c-1.425-0.079-2.889 1.187-2.999 2.854l-18.765 274.309zM374.673 710.6c30.746 4.203 60.996-11.913 73.233-39.052 3.742-7.435 5.99-15.502 6.635-23.911l16.58-234.175c0.222-3.209 1.741-6.199 4.224-8.307 1.86-1.583 4.147-2.573 6.703-2.859l2.641-0.051 237.833 14.327c19.311 1.135 38.246-5.585 52.322-18.573 14.071-12.988 22.033-31.083 21.931-52.023-10.577-154.133-123.793-282.987-277.99-316.386s-312.443 36.655-388.317 171.593c-20.289 34.786-33.964 72.832-40.278 111.356l-2.021 14.464c-1.755 10.829-2.698 21.769-2.834 32.273l0.133 10.338c0.439 160.926 113.427 300.082 272.426 337.615l10.912 2.401 5.87 0.971zM384.701 649.466l-3.595-0.409-9.748-2.202c-126.653-30.526-217.493-139.561-222.538-268.018l-0.22-10.458c-0.303-7.953-0.013-15.919 0.947-24.393l1.185-8.661c4.239-36.446 16.008-71.671 34.832-103.953 62.6-111.322 192.749-168.939 319.567-141.47s219.93 133.444 228.557 258.197c0.004 1.877-0.785 3.678-2.185 4.966-0.93 0.858-2.078 1.442-3.29 1.702l-1.856 0.145-237.44-14.302c-20.036-1.425-39.829 5.022-54.997 17.911-15.165 12.885-24.455 31.155-25.804 50.65l-16.563 233.977c-0.030 0.388-0.135 0.766-0.862 2.269-1.080 2.391-3.428 3.912-5.99 4.047z" />
<glyph unicode="&#xe931;" glyph-name="Heart" data-tags="Heart" d="M276.613 839.881c-156.655-50.436-226.528-221.457-174.007-384.606 26.652-76.826 69.996-145.877 126.943-202.526 78.121-75.874 163.947-142.643 256.207-199.377l10.475-6.272c10.035-6.007 22.588-5.901 32.521 0.273l9.779 6.076c92.134 56.657 177.958 123.426 255.812 199.036 57.216 56.913 100.561 125.965 126.989 202.121 52.71 163.72-17.451 334.822-174.153 385.274l-11.337 3.376c-71.846 19.761-148.194 10.024-212.557-26.416l-11.439-6.781-11.238 6.744c-67.887 38.519-149.018 47.198-223.995 23.080zM485.316 752.884l8.397-6.021c11.063-7.924 25.993-7.767 36.89 0.39 56.747 42.482 130.189 54.845 197.466 33.261 121.412-39.089 176.666-173.836 134.071-306.147-23.1-66.547-61.342-127.471-111.565-177.429l-22.528-21.402c-60.698-56.41-126.336-107.473-196.032-152.469l-19.959-12.553 6.089-3.84c-88.043 54.144-170.251 118.097-244.829 190.528-49.953 49.694-88.194 110.618-111.52 177.83-42.41 131.771 12.603 266.423 133.95 305.491 64.076 20.611 133.934 10.392 189.571-27.64zM677.133 683.36c-16.418 5.24-33.98-3.81-39.223-20.213s3.814-33.949 20.233-39.188c32.265-10.299 55.27-39.341 58.15-73.6 1.446-17.158 16.538-29.898 33.711-28.456s29.926 16.521 28.48 33.68c-4.988 59.304-44.971 109.782-101.35 127.778z" />
<glyph unicode="&#xe932;" glyph-name="Hide" data-tags="Hide" d="M871.155 801.443c11.362-11.18 12.395-28.676 3.098-41.005l-676.12-665.88c-12.497-12.301-32.758-12.301-45.255 0-11.361 11.179-12.393 28.676-3.098 41.003l3.098 3.533 84.112 82.778c-60.521 54.374-111.275 127.049-149.062 213.679-3.469 7.953-3.459 16.96 0.027 24.905 43.756 99.733 104.495 181.081 177.37 237.487 73.766 57.455 158.916 88.174 246.675 88.174 79.168 0 156.011-25.065 224.823-72.338l89.079 87.666c12.497 12.299 32.755 12.299 45.252 0zM282.298 266.462l91.215 89.771c-18.416 26.675-28.511 58.274-28.511 91.716 0 90.999 74.569 164.433 166.997 164.433 33.796 0 66.249-10.004 93.299-28.044l85.44 84.085c-55.795 35.98-116.595 54.707-178.739 54.707-72.947 0-144.217-25.711-207.034-74.638-60.153-46.558-111.709-113.483-150.638-196.243l-1.991-4.309 1.935-4.22c33.833-72.299 77.429-132.416 128.026-177.259zM558.656 538.436c-14.153 7.095-30.118 10.961-46.656 10.961-57.071 0-102.997-45.227-102.997-101.449 0-16.375 3.87-31.927 11.127-45.841l138.526 136.329zM645.828 455.859c-15.748 0.666-29.965-10.206-32.836-25.894-7.535-41.237-40.61-73.852-82.466-81.327-17.387-3.106-28.924-19.499-25.766-36.612 3.153-17.114 19.81-28.467 37.201-25.361 68.139 12.173 121.762 65.050 134.025 132.151 3.127 17.118-8.439 33.489-25.83 36.57l-4.326 0.474zM810.539 605.253c-14.123-10.46-16.951-30.205-6.323-44.1l10.283-13.916c20.254-28.367 38.613-59.915 54.857-94.313l2.257-4.983-6.643-14.012c-80.713-164.548-211.972-261.056-352.969-261.056-33.25 0-66.146 5.295-97.902 15.723-16.764 5.508-34.89-3.405-40.485-19.904-5.595-16.495 3.46-34.334 20.224-39.842 38.269-12.57 78.004-18.961 118.162-18.961 176.405 0 335.415 123.546 424.047 325.623 3.494 7.97 3.494 17.011-0.009 24.981-22.66 51.571-49.724 98.051-80.691 138.538-10.628 13.896-30.69 16.681-44.809 6.222z" />
<glyph unicode="&#xe933;" glyph-name="Home" data-tags="Home" d="M867.814 633.204c28.587-22.144 46.123-55.040 49.109-90.837l0.427-8.576v-345.984c0-89.173-70.443-161.707-158.72-166.4h-84.907c-40.576 0.811-73.387 32.384-76.373 72.064l-0.427 6.016v121.984c0 13.269-9.856 24.32-23.040 26.496l-3.84 0.427h-113.963c-13.611-0.427-24.704-10.24-26.411-23.040l-0.427-3.883v-121.6c0-2.517-0.469-5.504-0.853-7.637l-0.427-0.896-0.469-2.944c-5.077-36.309-34.944-64-72.064-66.603l-5.547-0.384h-76.373c-89.173 0-162.133 69.931-166.827 157.867v354.518c0.384 36.309 16.213 70.016 42.667 93.483l265.813 213.76c54.187 43.051 130.133 44.757 185.984 5.12l6.869-5.12 259.797-207.829zM857.574 180.979l0.469 6.827v345.6c-0.469 18.304-8.107 35.413-21.333 48.171l-5.547 4.736-260.267 208.213c-32.427 26.027-78.507 27.264-112.64 4.693l-6.443-4.693-259.413-209.109c-14.891-11.051-23.851-27.691-25.984-45.184l-0.469-6.827v-345.6c0-56.747 44.373-103.253 100.736-106.667h83.2c9.387 0 17.493 6.357 18.731 15.317l0.896 7.68 0.427 2.176v115.157c0 45.653 34.987 82.773 79.787 86.229h120.32c45.611 0 82.731-35.029 86.187-79.829v-128.384c0-8.96 6.4-16.683 14.933-18.347h79.317c57.173 0 103.68 43.904 107.093 99.84z" />
<glyph unicode="&#xe934;" glyph-name="Image" data-tags="Image" d="M326.883 874.667h369.808c145.203 0 241.975-103.632 241.975-252.334v-348.622c0-148.71-96.777-252.378-241.975-252.378h-369.808c-145.133 0-241.55 103.586-241.55 252.378v348.622c0 148.629 96.698 252.334 241.55 252.334zM696.691 810.503h-369.808c-108.401 0-177.421-74.021-177.421-188.171v-348.622c0-114.338 68.765-188.215 177.421-188.215h369.808c108.766 0 177.847 74.001 177.847 188.215v348.622c0 114.203-69.073 188.171-177.847 188.171zM577.318 428.42c37.858 46.11 106.027 50.773 149.76 11.75l5.559-5.338 88.755-91.627c12.322-12.723 12.006-33.033-0.713-45.363-11.558-11.213-29.385-11.968-41.792-2.453l-3.546 3.162-88.751 91.622c-15.462 15.953-40.597 16.102-56.29 1.212l-3.443-3.703-95.279-115.947c-33.702-41.075-94.34-45.478-133.574-11.055l-5.213 4.932-38.025 38.822c-9.988 10.372-25.917 11.354-37.009 2.982l-3.504-3.136-65.368-68.996c-12.183-12.86-32.477-13.402-45.329-1.212-11.683 11.081-13.194 28.873-4.219 41.673l3.007 3.682 65.354 68.983c34.406 36.361 91.064 38.298 127.715 5.862l5.342-5.12 37.831-38.626c11.059-11.285 28.787-11.575 40.213-1.421l3.23 3.358 95.287 115.955zM365.766 676.64c-59.090 0-107.009-47.983-107.009-107.11s47.919-107.109 107.009-107.109c59.092 0 107.053 47.983 107.053 107.109s-47.96 107.11-107.053 107.11zM365.766 612.477c23.675 0 42.923-19.258 42.923-42.947s-19.248-42.947-42.923-42.947c-23.662 0-42.88 19.244-42.88 42.947s19.218 42.947 42.88 42.947z" />
<glyph unicode="&#xe935;" glyph-name="Image-2" data-tags="Image 2" d="M327.090 874.667h369.818c145.246 0 241.758-103.669 241.758-252.447v-348.441c0-148.783-96.521-252.446-241.801-252.446h-369.776c-145.243 0-241.757 103.667-241.757 252.446v348.441c0 148.653 96.744 252.447 241.757 252.447zM696.909 810.529h-369.818c-108.543 0-177.619-74.11-177.619-188.309v-348.441c0-31.791 5.323-60.459 15.347-85.282l49.074 59.567 21.681 26.735c54.574 67.618 104.602 96.823 170.127 69.38 9.95-4.177 18.461-8.683 29.35-15.407l28.186-18.185c28.151-17.847 41.553-20.407 62.14-9.254 18.304 9.903 31.138 23.753 50.654 53.798l12.813 20.382 8.713 13.978c7.834 12.373 13.414 20.497 20.245 29.342 45.15 58.432 115.55 77.461 177.088 40.439 26.65-16.060 46.007-32.004 79.642-64.094v227.041c0 114.339-68.864 188.309-177.621 188.309zM874.53 306.573l-2.086 1.865c-4.446 4.092-9.203 8.58-14.912 14.046l-29.837 28.723c-28.612 27.17-44.983 40.521-65.89 53.12-31.616 19.021-66.816 9.506-93.244-24.695l-5.346-7.202c-1.775-2.487-3.58-5.12-5.525-8.055l-16.704-26.496c-31.501-51.046-50.62-74.3-85.069-92.945-42.428-22.985-77.001-18.21-119.044 6.601l-18.683 11.823-15.712 10.142c-8.726 5.419-14.963 8.755-21.573 11.529-28.606 11.985-54.024-1.263-89.126-42.871l-77.072-94.161c-4.162-5.035-8.464-10.236-12.925-15.625 30.582-30.046 73.402-46.899 125.309-46.899h369.776c108.791 0 177.664 73.967 177.664 188.309v32.794zM267.566 584.541c0 61.273 49.71 111.001 110.959 111.001 61.283 0 111.003-49.719 111.003-111.001s-49.719-111.001-111.003-111.001c-61.248 0-110.959 49.728-110.959 111.001zM425.388 584.541c0 25.86-21.004 46.863-46.864 46.863-25.821 0-46.821-21.007-46.821-46.863s21-46.863 46.821-46.863c25.86 0 46.864 21.004 46.864 46.863z" />
<glyph unicode="&#xe936;" glyph-name="Info-Circle" data-tags="Info Circle" d="M85.328 447.991c0 235.615 191.052 426.668 426.668 426.668 235.644 0 426.667-191.038 426.667-426.668 0-235.627-191.023-426.667-426.667-426.667-235.616 0-426.668 191.053-426.668 426.667zM874.662 447.991c0 200.284-162.372 362.668-362.667 362.668-200.269 0-362.668-162.399-362.668-362.668s162.398-362.667 362.668-362.667c200.294 0 362.667 162.385 362.667 362.667zM511.787 641.951c16.201 0 29.589-12.039 31.706-27.658l0.294-4.342v-188.545c0-17.673-14.327-32-32-32-16.201 0-29.589 12.041-31.71 27.657l-0.29 4.343v188.545c0 17.673 14.327 32 32 32zM544.213 286.033c0 17.673-14.327 32-32 32l-4.77-0.29c-15.62-2.121-27.657-15.509-27.657-31.71 0-17.673 14.327-32 32-32l4.766 0.294c15.62 2.116 27.661 15.505 27.661 31.706z" />
<glyph unicode="&#xe937;" glyph-name="Info-Square" data-tags="Info Square" d="M696.943 874.659h-369.877c-144.963 0-241.707-103.791-241.707-252.416v-348.502c0-148.766 96.485-252.416 241.707-252.416h369.834c145.263 0 241.792 103.65 241.792 252.416v348.502c0 148.757-96.521 252.416-241.749 252.416zM327.066 810.659h369.877c108.821 0 177.749-74.025 177.749-188.416v-348.502c0-114.394-68.932-188.416-177.792-188.416h-369.834c-108.81 0-177.707 74.014-177.707 188.416v348.502c0 114.245 69.135 188.416 177.707 188.416zM511.996 641.951c17.673 0 32-14.327 32-32 0-16.201-12.036-29.589-27.657-31.708l-4.77-0.292c-17.673 0-32 14.327-32 32 0 16.2 12.041 29.589 27.657 31.708l4.77 0.292zM511.569 506.577c16.201 0 29.589-12.036 31.71-27.657l0.29-4.343v-188.544c0-17.673-14.327-32-32-32-16.201 0-29.589 12.041-31.706 27.657l-0.294 4.343v188.544c0 17.673 14.327 32 32 32z" />
<glyph unicode="&#xe938;" glyph-name="Location" data-tags="Location" d="M513.229 874.665c-196.652 0.668-357.278-155.789-363.698-351.631l-0.198-12.156c3.269-95.991 35.928-187.494 93.452-262.882l13.51-17.63c54.907-69.815 120.157-131.093 193.424-181.602l17.638-11.874 2.573-2.022c25.114-18.044 59.021-18.044 84.13 0l2.142 1.762c58.138 37.7 111.744 82.001 159.765 132.019 97.626 103.343 156.467 219.14 158.69 336.738l0.004 4.369c0.666 197.149-155.311 358.269-350.545 364.711l-10.889 0.198zM513.011 809.921c161.216-0.551 292.109-129.363 296.969-289.776l0.137-14.144c-1.865-98.594-53.491-200.183-140.821-292.629-44.531-46.383-94.46-87.616-148.608-122.684l-3.61-2.709c-2.918-2.534-7.245-2.534-10.159 0l-3.507 2.645c-80.671 52.668-151.472 119.168-209.167 196.45-46.472 60.907-74.010 133.73-79.553 209.698l-0.815 15.232c0.548 161.608 128.963 292.903 288.885 297.779l10.249 0.138zM511.996 644.212c-76.305 0-138.161-62.048-138.161-138.59 0-76.54 61.856-138.586 138.161-138.586s138.163 62.046 138.163 138.586c0 76.542-61.858 138.59-138.163 138.59zM511.996 579.468c40.657 0 73.617-33.062 73.617-73.847 0-40.781-32.96-73.843-73.617-73.843s-73.617 33.062-73.617 73.843c0 40.785 32.96 73.847 73.617 73.847z" />
<glyph unicode="&#xe939;" glyph-name="Lock" data-tags="Lock" d="M537.6 358.4c0 17.067-17.067 25.6-29.867 25.6-17.067 0-34.133-12.8-34.133-34.133v-98.133c0-17.067 17.067-25.6 29.867-25.6 17.067 0 34.133 12.8 34.133 34.133v98.133zM733.867 580.267v76.8c-4.267 119.467-106.667 217.6-226.133 217.6-128 0-226.133-98.133-226.133-226.133v-68.267c-76.8-25.6-132.267-98.133-132.267-183.467v-183.467c0-106.667 85.333-192 192-192h324.267c106.667 0 192 85.333 192 192v183.467c4.267 85.333-51.2 157.867-123.733 183.467zM345.6 648.533v8.533c4.267 85.333 76.8 153.6 162.133 153.6 89.6 0 162.133-72.533 162.133-162.133v-55.467h-324.267v55.467zM797.867 213.333c0-72.533-59.733-128-128-128h-328.533c-72.533 0-128 59.733-128 128v183.467c0 72.533 59.733 128 128 128h324.267c72.533 0 128-59.733 128-128v-183.467z" />
<glyph unicode="&#xe93a;" glyph-name="Login" data-tags="Login" d="M917.060 693.818c-4.642 100.158-87.287 179.911-188.595 179.911l-217.293-0.206c-100.397-4.649-180.319-87.456-180.319-188.978v-39.808l0.292-4.342c2.119-15.619 15.508-27.658 31.708-27.658 17.673 0 32 14.327 32 32v39.808l0.212 7.357c3.807 65.731 58.293 117.827 125.015 117.827l215.718-0.212c65.523-3.795 117.466-58.11 117.466-124.588v-475.308l-0.213-7.356c-3.81-65.732-58.33-117.871-125.013-117.871l-215.757 0.213c-65.476 3.797-117.428 58.142-117.428 124.587v40.192l-0.292 4.343c-2.119 15.62-15.508 27.657-31.708 27.657-17.673 0-32-14.327-32-32v-40.192l0.218-9.143c4.771-100.006 87.367-179.657 188.54-179.657l217.331 0.209c100.369 4.651 180.322 87.505 180.322 189.018v475.308l-0.205 8.889zM527.078 594.068c11.337 11.384 29.111 12.453 41.66 3.184l3.593-3.091 124.928-124.418c11.418-11.366 12.454-29.205 3.115-41.754l-0.115-0.132c-0.892-1.186-1.869-2.313-2.914-3.362l-0.085-0.098-124.928-124.416c-12.523-12.471-32.781-12.429-45.252 0.094-11.341 11.383-12.335 29.163-3.012 41.673l3.102 3.58 70.007 69.743h-436.259c-17.673 0-32 14.327-32 32 0 16.201 12.039 29.589 27.658 31.71l4.342 0.29h436.25l-69.999 69.743c-11.383 11.337-12.45 29.113-3.183 41.659l3.093 3.596z" />
<glyph unicode="&#xe93b;" glyph-name="Logout" data-tags="Logout" d="M483.456 873.75c101.513 0 184.367-79.955 189.018-180.32l0.209-8.907v-39.808c0-17.673-14.327-32-32-32-16.201 0-29.589 12.038-31.71 27.658l-0.29 4.342v39.808c0 66.684-52.139 121.204-117.871 125.014l-7.356 0.213h-208.001c-66.647 0-121.162-52.145-124.971-117.87l-0.213-7.357v-474.881c0-66.679 52.135-121.203 117.831-125.013l7.353-0.213h208.428c66.445 0 120.789 51.951 124.587 117.427l0.213 7.33v40.235c0 17.673 14.327 32 32 32 16.201 0 29.589-12.036 31.706-27.657l0.294-4.343v-40.235c0-101.171-79.65-183.77-179.657-188.54l-9.143-0.218h-208.428c-101.48 0-184.327 79.962-188.978 180.322l-0.206 8.905v474.881c0 101.506 79.947 184.368 180.28 189.021l8.904 0.206h208.001zM952.67 470.199c6.080-5.824 9.869-14.025 9.869-23.113 0-9.178-3.866-17.451-10.052-23.287l-124.309-123.797c-12.523-12.471-32.785-12.429-45.252 0.094-11.341 11.383-12.335 29.163-3.017 41.673l3.106 3.58 69.978 69.739h-436.204c-17.673 0-32 14.327-32 32 0 16.201 12.039 29.589 27.658 31.71l4.342 0.29h436.276l-70.046 69.701c-11.383 11.335-12.459 29.111-3.191 41.658l3.093 3.596c11.332 11.386 29.107 12.459 41.655 3.191l3.597-3.091 124.497-123.943z" />
<glyph unicode="&#xe93c;" glyph-name="Message" data-tags="Message" d="M705.079 831.998l-386.949 0.002c-135.233 0-232.797-109.291-232.797-249.983v-268.033c0-140.693 97.564-249.984 232.797-249.984h386.586c64.956 0.73 126.438 28.070 170.487 75.665 44.045 47.599 66.816 111.287 63.006 176.243l0.055 266.109c3.755 63.030-19.017 126.721-63.061 174.316-44.049 47.595-105.532 74.939-170.125 75.665zM318.13 766.787l386.228 0.002c46.886-0.527 91.511-20.375 123.486-54.922s48.499-80.779 45.734-127.926l-0.055-269.957c2.82-49.071-13.705-95.305-45.679-129.852s-76.599-54.396-123.486-54.921h-386.228c-97.851 0-168.053 78.643-168.053 184.772v268.033c0 106.13 70.202 184.77 168.053 184.77zM769.024 591.43c-11.17 14.059-31.543 16.334-45.5 5.080l-174.903-141.009-5.013-3.524c-20.621-12.915-47.701-11.725-67.456 3.785l-176.18 140.834-3.965 2.718c-13.665 7.95-31.412 4.834-41.516-7.99-11.114-14.106-8.771-34.615 5.233-45.81l176.403-141.012 6.882-5.035c44.378-30.225 103.181-28.553 145.741 4.86l175.232 141.271 3.516 3.287c10.743 11.644 11.686 29.764 1.527 42.545z" />
<glyph unicode="&#xe93d;" glyph-name="More-Circle" data-tags="More Circle" d="M512.009 874.659c-235.644 0-426.668-191.038-426.668-426.668 0-235.627 191.024-426.667 426.668-426.667 235.614 0 426.667 191.053 426.667 426.667 0 235.615-191.053 426.668-426.667 426.668zM512.009 810.659c200.269 0 362.667-162.399 362.667-362.668s-162.398-362.667-362.667-362.667c-200.297 0-362.668 162.385-362.668 362.667 0 200.284 162.371 362.668 362.668 362.668zM269.768 447.983c0-28.16 22.912-51.072 51.115-51.072s51.115 22.912 51.115 51.072c0 28.16-22.912 51.115-51.115 51.115s-51.115-22.955-51.115-51.115zM512.009 396.911c-28.203 0-51.115 22.912-51.115 51.072s22.912 51.115 51.115 51.115c28.203 0 51.115-22.955 51.115-51.115s-22.912-51.072-51.115-51.072zM651.998 447.983c0-28.16 22.912-51.072 51.115-51.072s51.115 22.912 51.115 51.072c0 28.16-22.912 51.115-51.115 51.115s-51.115-22.955-51.115-51.115z" />
<glyph unicode="&#xe93e;" glyph-name="More-Square" data-tags="More Square" d="M696.947 874.659h-369.879c-144.963 0-241.707-103.791-241.707-252.416v-348.502c0-148.779 96.457-252.416 241.707-252.416h369.836c145.263 0 241.792 103.65 241.792 252.416v348.502c0 148.757-96.521 252.416-241.749 252.416zM327.069 810.659h369.879c108.821 0 177.749-74.025 177.749-188.416v-348.502c0-114.394-68.932-188.416-177.792-188.416h-369.836c-108.837 0-177.707 73.997-177.707 188.416v348.502c0 114.245 69.135 188.416 177.707 188.416zM269.772 447.983c0-28.16 22.912-51.072 51.115-51.072s51.115 22.912 51.115 51.072c0 28.16-22.912 51.115-51.115 51.115s-51.115-22.955-51.115-51.115zM512.009 396.911c-28.203 0-51.115 22.912-51.115 51.072s22.912 51.115 51.115 51.115c28.203 0 51.115-22.955 51.115-51.115s-22.912-51.072-51.115-51.072zM651.998 447.983c0-28.16 22.912-51.072 51.115-51.072s51.115 22.912 51.115 51.072c0 28.16-22.912 51.115-51.115 51.115s-51.115-22.955-51.115-51.115z" />
<glyph unicode="&#xe93f;" glyph-name="Notification" data-tags="Notification" d="M513.54 874.667h-3.042c-143.75 0-275.552-104.301-288.339-242.388-0.853-9.878-1.434-19.972-1.809-30.846l-0.525-25.422-0.104-22.793 0.642 2.598c-5.932-28.925-19.604-55.759-39.603-77.685l-2.866-3.686c-17.123-26.010-26.962-56.119-28.485-87.211l-0.036-10.163c-0.874-40.892 13.138-81.353 39.498-113.489 35.747-37.743 82.019-60.258 131.683-65.037 127.020-13.794 255.532-13.794 382.905 0.038 49.327 4.54 95.735 27.119 129.984 63.467 25.86 30.938 39.974 68.062 41.182 106.505l0.043 17.207c-1.417 32.457-11.315 62.592-28.646 88.491l-2.633 3.379-6.43 7.565c-14.447 18.048-24.998 38.835-31.002 61.070l-1.903 7.983-0.393 8.373c-0.119 3.766-0.175 7.942-0.196 13.157l-0.004 28.719c-0.098 10.986-0.422 18.798-1.182 27.593-13.227 138.347-145.067 242.575-288.738 242.575zM510.498 815.132h3.042c115.093 0 220.087-83.004 230.17-188.497 0.597-6.926 0.862-13.533 0.943-23.349l0.115-38.598c0.128-6.173 0.371-11.306 0.785-17.082l0.55-3.954 2.769-11.768c8.205-31.125 22.938-60.164 43.221-85.201l5.884-6.899-0.653 1.084c11.251-16.815 17.664-36.326 18.56-56.444l-0.030-6.976c0.678-27.994-8.606-54.588-26.163-75.652-23.206-24.546-56.375-40.683-92.032-43.968-123.678-13.427-247.983-13.427-371.188-0.047-36.047 3.469-69.242 19.618-93.781 45.449-15.907 19.52-25.088 46.033-24.512 73.203l0.007 9.331 0.745 8.128c1.795 13.598 6.339 27.379 13.382 40.068l3.571 5.914c26.182 29.444 44.15 65.254 52.064 103.843l0.614 6.051 0.279 39.222 0.685 19.899c0.311 6.278 0.709 12.242 1.207 18.023 9.744 105.212 114.639 188.221 229.766 188.221zM225.884 439.872c-0.633-0.713-1.271-1.421-1.914-2.129l2.102 2.436-0.188-0.307zM623.275 119.868c-12.655 10.304-31.168 8.273-41.348-4.535-4.412-5.551-9.519-10.53-15.202-14.822-19.281-15.117-43.337-21.85-67.251-18.999-23.881 2.842-45.589 14.997-60.318 33.711-10.121 12.86-28.621 14.98-41.324 4.736s-14.796-28.975-4.675-41.83c24.423-31.031 60.212-51.072 99.444-55.744 39.198-4.672 78.669 6.374 109.713 30.737 9.216 6.946 17.916 15.424 25.438 24.896 10.18 12.809 8.175 31.548-4.476 41.852z" />
<glyph unicode="&#xe940;" glyph-name="Paper" data-tags="Paper" d="M623.219 874.16h5.547c8.713 0 17.050-3.553 23.083-9.839l216.107-225.109c5.722-5.959 8.917-13.9 8.917-22.161v-391.084c0-106.628-86.43-198.869-191.104-198.869h-340.864c-110.054 0-195.584 87.91-195.584 198.869v457.089c0 105.010 89.46 191.104 195.584 191.104h266.991c1.839 0.328 3.729 0.499 5.662 0.499s3.823-0.172 5.662-0.499zM585.557 810.194l-240.653-0.034c-71.316 0-131.584-58.001-131.584-127.104v-457.089c0-75.998 57.275-134.869 131.584-134.869h340.864c68.365 0 127.104 62.69 127.104 134.869l-0.030 350.747-37.355-0.127c-14.234 0.017-30.426 0.047-48.431 0.088-75.499 0.16-137.118 59.337-141.278 133.829l-0.222 8.038v91.652zM777.822 640.682l-128.265 133.606v-55.746c0-42.942 34.739-77.776 77.641-77.867l50.624 0.007zM609.451 328.201h-230.272l-4.342-0.29c-15.619-2.121-27.658-15.509-27.658-31.71 0-17.673 14.327-32 32-32h230.272l4.343 0.294c15.616 2.116 27.657 15.505 27.657 31.706 0 17.673-14.327 32-32 32zM554.347 507.494c0-16.201-12.041-29.589-27.657-31.706l-4.343-0.294h-143.19c-17.673 0-32 14.327-32 32 0 16.201 12.039 29.59 27.658 31.709l4.342 0.292h143.19c17.673 0 32-14.328 32-32.001z" />
<glyph unicode="&#xe941;" glyph-name="Paper-Download" data-tags="Paper Download" d="M623.206 874.16h5.547c8.713 0 17.050-3.552 23.083-9.837l216.149-225.109c5.722-5.96 8.917-13.901 8.917-22.163v-392.108c0-106.453-86.37-197.845-191.147-197.845h-340.82c-110.215 0-195.584 87.019-195.584 197.845v458.113c0 105.010 89.459 191.104 195.584 191.104h266.947c1.839 0.328 3.733 0.499 5.662 0.499 1.933 0 3.823-0.172 5.662-0.499zM585.545 810.194l-240.609-0.034c-71.316 0-131.584-58.001-131.584-127.104v-458.113c0-75.75 56.992-133.845 131.584-133.845h340.82c68.595 0 127.147 61.956 127.147 133.845l-0.013 351.771-37.397-0.127c-14.229 0.017-30.413 0.047-48.405 0.088-75.533 0.16-137.156 59.329-141.316 133.828l-0.226 8.039v91.652zM777.86 640.682l-128.316 133.627v-55.767c0-42.947 34.748-77.776 77.683-77.867l50.633 0.007zM496.67 589.193c-17.673 0-32-14.327-32-32v-203.013l-66.425 66.765-3.582 3.106c-12.506 9.327-30.287 8.333-41.673-2.999-12.525-12.471-12.572-32.73-0.103-45.257l121.357-121.878c0.956-0.939 1.967-1.813 3.034-2.628l0.29-0.252c12.54-9.34 30.374-8.311 41.745 3.093 0.004 0.009 0.013 0.013 0.017 0.017l121.131 121.643 3.089 3.597c9.271 12.544 8.201 30.323-3.187 41.66-12.523 12.467-32.781 12.425-45.252-0.098l-66.441-66.671v202.915l-0.29 4.342c-2.121 15.619-15.509 27.658-31.71 27.658z" />
<glyph unicode="&#xe942;" glyph-name="Paper-Fail" data-tags="Paper Fail" d="M623.215 874.16h5.547c8.713 0 17.050-3.553 23.083-9.839l216.107-225.109c5.722-5.959 8.917-13.9 8.917-22.161v-396.886c0-105.822-85.786-193.067-191.104-193.067h-336.343c-111.529 0-200.107 83.456-200.107 193.067v462.892c0 105.553 85.567 191.104 191.104 191.104h271.472c1.839 0.328 3.729 0.499 5.662 0.499 1.929 0 3.823-0.172 5.662-0.499zM585.553 810.194l-245.134-0.034c-70.193 0-127.104-56.9-127.104-127.104v-462.892c0-73.387 59.1-129.067 136.107-129.067h336.343c69.73 0 127.104 58.351 127.104 129.067l-0.026 356.55-37.359-0.127c-14.234 0.017-30.426 0.047-48.431 0.088-75.499 0.16-137.118 59.337-141.278 133.829l-0.222 8.038v91.652zM777.822 640.682l-128.269 133.611v-55.751c0-42.942 34.739-77.776 77.641-77.867l50.628 0.007zM408.748 505.545c-12.497-12.493-12.497-32.755 0-45.252l51.318-51.319-51.309-51.311-3.098-3.588c-9.295-12.527-8.262-30.302 3.098-41.664 12.497-12.497 32.758-12.497 45.255 0l51.311 51.311 51.307-51.311 3.593-3.098c12.527-9.297 30.302-8.265 41.664 3.098 12.497 12.497 12.497 32.759 0 45.252l-51.311 51.311 51.319 51.319 3.098 3.588c9.297 12.527 8.265 30.306-3.098 41.664-12.497 12.497-32.759 12.497-45.257 0l-51.315-51.315-51.319 51.315-3.588 3.102c-12.527 9.293-30.306 8.26-41.667-3.102z" />
<glyph unicode="&#xe943;" glyph-name="Paper-Negative" data-tags="Paper Negative" d="M617.549 874.659c-1.933 0-3.823-0.172-5.662-0.499h-266.949c-106.154 0-195.584-86.081-195.584-191.104v-462.892c0-110.174 84.712-193.067 195.584-193.067h340.822c105.327 0 191.147 87.253 191.147 193.067v396.886c0 8.262-3.196 16.204-8.917 22.163l-216.149 225.109c-6.037 6.284-14.37 9.837-23.083 9.837h-5.547c-1.839 0.328-3.729 0.499-5.662 0.499zM344.938 810.16l240.611 0.034v-91.652l0.222-8.039c4.16-74.499 65.788-133.668 141.321-133.828 17.993-0.041 34.176-0.071 48.405-0.088l37.389 0.127 0.021-356.55c0-70.703-57.408-129.067-127.147-129.067h-340.822c-75.833 0-131.584 54.554-131.584 129.067v462.892c0 69.118 60.241 127.104 131.584 127.104zM727.232 640.675c-42.94 0.091-77.683 34.92-77.683 77.867v55.763l128.307-133.623-50.624-0.007zM641.882 373.453c0-16.201-12.041-29.589-27.657-31.706l-4.343-0.294h-209.11c-17.673 0-32 14.327-32 32 0 16.201 12.038 29.589 27.658 31.71l4.342 0.29h209.11c17.673 0 32-14.327 32-32z" />
<glyph unicode="&#xe944;" glyph-name="Paper-Plus" data-tags="Paper Plus" d="M623.202 874.16h5.547c8.713 0 17.050-3.552 23.083-9.837l216.149-225.109c5.722-5.96 8.917-13.901 8.917-22.163v-396.886c0-105.813-85.82-193.067-191.147-193.067h-340.821c-110.872 0-195.584 82.893-195.584 193.067v462.892c0 105.010 89.459 191.104 195.584 191.104h266.948c1.839 0.328 3.729 0.499 5.662 0.499s3.823-0.172 5.662-0.499zM585.54 810.194l-240.61-0.034c-71.316 0-131.584-58.001-131.584-127.104v-462.892c0-74.513 55.751-129.067 131.584-129.067h340.821c69.739 0 127.147 58.364 127.147 129.067l-0.013 356.55-37.397-0.128c-14.229 0.017-30.413 0.047-48.405 0.088-75.533 0.16-137.156 59.329-141.316 133.828l-0.226 8.039v91.652zM777.856 640.682l-128.316 133.632v-55.772c0-42.947 34.743-77.776 77.683-77.867l50.633 0.007zM609.894 440.994h-72.563v72.525l-0.29 4.343c-2.121 15.619-15.509 27.657-31.71 27.657-17.673 0-32-14.328-32-32.001v-72.525h-72.546l-4.342-0.29c-15.619-2.121-27.658-15.509-27.658-31.71 0-17.673 14.327-32 32-32h72.546v-72.585l0.294-4.343c2.116-15.616 15.505-27.657 31.706-27.657 17.673 0 32 14.327 32 32v72.585h72.563l4.343 0.294c15.62 2.116 27.657 15.505 27.657 31.706 0 17.673-14.327 32-32 32z" />
<glyph unicode="&#xe945;" glyph-name="Paper-Upload" data-tags="Paper Upload" d="M623.202 874.16h5.547c8.713 0 17.050-3.552 23.083-9.837l216.149-225.109c5.722-5.96 8.917-13.901 8.917-22.163v-392.108c0-106.453-86.37-197.845-191.147-197.845h-340.821c-110.215 0-195.584 87.019-195.584 197.845v458.113c0 105.010 89.459 191.104 195.584 191.104h266.948c1.839 0.328 3.729 0.499 5.662 0.499s3.823-0.172 5.662-0.499zM585.54 810.194l-240.61-0.034c-71.316 0-131.584-58.001-131.584-127.104v-458.113c0-75.75 56.992-133.845 131.584-133.845h340.821c68.595 0 127.147 61.956 127.147 133.845l-0.013 351.771-37.397-0.128c-14.229 0.017-30.413 0.047-48.405 0.088-75.533 0.16-137.156 59.329-141.316 133.828l-0.226 8.039v91.652zM777.856 640.682l-128.316 133.632v-55.772c0-42.947 34.743-77.776 77.683-77.867l50.633 0.007zM464.666 479.744l-66.426-66.743c-11.335-11.388-29.11-12.459-41.659-3.191l-3.596 3.089c-11.387 11.332-12.46 29.107-3.194 41.655l3.090 3.597 121.090 121.644c11.366 11.422 29.21 12.462 41.758 3.119l0.060-0.052c1.276-0.952 2.479-1.996 3.597-3.124l121.071-121.583c12.467-12.523 12.425-32.785-0.098-45.252-11.383-11.337-29.163-12.335-41.673-3.012l-3.58 3.106-66.441 66.718v-202.961c0-17.673-14.327-32-32-32-16.201 0-29.589 12.041-31.706 27.657l-0.294 4.343v202.991z" />
<glyph unicode="&#xe946;" glyph-name="Password" data-tags="Password" d="M696.934 874.659h-369.876c-144.963 0-241.707-103.791-241.707-252.416v-348.502c0-148.766 96.485-252.416 241.707-252.416h369.833c145.263 0 241.792 103.65 241.792 252.416v348.502c0 148.757-96.521 252.416-241.749 252.416zM327.058 810.659h369.876c108.821 0 177.749-74.025 177.749-188.416v-348.502c0-114.394-68.932-188.416-177.792-188.416h-369.833c-108.81 0-177.707 74.014-177.707 188.416v348.502c0 114.245 69.135 188.416 177.707 188.416zM377.187 559.011c-61.276 0-110.976-49.737-110.976-111.020s49.7-111.019 110.976-111.019c50.183 0 92.594 33.318 106.333 79.019l89.562 0.004v-47.002l0.294-4.343c2.116-15.616 15.505-27.657 31.706-27.657 17.673 0 32 14.327 32 32v47.006h56.678l0.013-47.027 0.294-4.343c2.116-15.616 15.505-27.657 31.706-27.657 17.673 0 32 14.327 32 32v79.019l-0.29 4.343c-2.121 15.62-15.509 27.657-31.71 27.657h-119.509c-0.393 0.013-0.785 0.021-1.182 0.021-0.393 0-0.785-0.009-1.178-0.021h-120.384c-13.739 45.705-56.149 79.020-106.333 79.020zM377.187 495.010c25.958 0 47.019-21.069 47.019-47.019s-21.061-47.019-47.019-47.019c-25.919 0-46.976 21.073-46.976 47.019s21.057 47.019 46.976 47.019z" />
<glyph unicode="&#xe947;" glyph-name="Play" data-tags="Play" d="M512 874.667c-235.641 0-426.667-191.025-426.667-426.667 0-235.639 191.025-426.667 426.667-426.667 235.639 0 426.667 191.027 426.667 426.667 0 235.641-191.027 426.667-426.667 426.667zM512 815.132c202.761 0 367.134-164.371 367.134-367.132s-164.373-367.134-367.134-367.134c-202.761 0-367.132 164.373-367.132 367.134s164.371 367.132 367.132 367.132zM463.846 616.34l-4.437 0.422c-8.41 0.288-17.079-1.822-24.725-5.946-9.898-5.298-17.886-13.883-22.316-24.513-2.036-4.92-5.556-20.111-7.14-28.932-3.976-21.681-6.289-55.025-6.681-91.612l-0.059-12.309c-0.042-38.822 2.102-75.772 6.063-100.122l2.172-11.187c2.162-9.941 5.034-20.544 7.336-25.011 8.78-16.964 26.641-27.439 45.624-26.837 8.098 0.179 25.105 5.833 36.932 10.799 42.59 17.92 117.602 68.134 152.26 101.99l11.507 11.981c4.407 4.706 6.391 6.895 8.068 9.186 6.268 8.521 9.536 18.812 9.536 29.235 0 11.072-3.648 21.879-10.603 30.699l-3.401 3.934-9.54 10.185c-32.725 34.88-118.357 92.384-162.103 109.38-9.621 3.802-20.467 7.446-28.493 8.66zM465.323 554.17l5.299-1.921c33.553-13.039 104.755-60.294 135.134-89.38l9.041-9.314-3.426-3.695c-25.331-27.311-100.134-78.029-137.822-93.884l-8.188-2.995-2.065 10.018c-2.97 18.244-4.855 47.125-5.214 78.558l-0.060 11.891c-0.034 34.283 1.715 66.274 4.732 86.864l1.451 8.484 1.118 5.373z" />
<glyph unicode="&#xe948;" glyph-name="Plus" data-tags="Plus" d="M697.975 874.667h-371.951c-144.441 0-240.691-103.249-240.691-251.442v-350.448c0-148.331 95.997-251.443 240.691-251.443h371.951c144.695 0 240.691 103.113 240.691 251.443v350.448c0 148.332-95.996 251.442-240.691 251.442zM326.025 815.132h371.951c110.827 0 181.158-75.542 181.158-191.907v-350.448c0-116.365-70.332-191.91-181.158-191.91h-371.951c-110.826 0-181.156 75.546-181.156 191.91v350.448c0 116.21 70.566 191.907 181.156 191.907zM512 623.536c15.070 0 27.524-11.199 29.495-25.728l0.273-4.039v-115.625h115.763c16.439 0 29.764-13.325 29.764-29.764 0-15.074-11.196-27.529-25.728-29.5l-4.036-0.269h-115.763v-115.627c0-16.439-13.329-29.764-29.769-29.764-15.070 0-27.524 11.196-29.495 25.728l-0.273 4.036v115.627h-115.761c-16.44 0-29.768 13.325-29.768 29.769 0 15.070 11.199 27.524 25.728 29.495l4.039 0.269h115.761v115.625c0 16.44 13.329 29.767 29.769 29.767z" />
<glyph unicode="&#xe949;" glyph-name="Profile" data-tags="Profile" d="M512.183 874.667c-125.185 0-226.668-101.915-226.668-227.634s101.483-227.632 226.668-227.632c125.184 0 226.667 101.914 226.667 227.632s-101.483 227.634-226.667 227.634zM512.183 812.899c91.217 0 165.163-74.261 165.163-165.867s-73.946-165.868-165.163-165.868c-91.217 0-165.163 74.262-165.163 165.868s73.946 165.867 165.163 165.867zM419.415 327.642c-33.183-2.304-66.724-7.040-99.808-14.131-63.856-13.154-114.942-39.433-136.685-83.106-8.201-17.079-12.324-35.366-12.255-53.879-0.025-18.381 4.065-36.693 11.972-53.444 20.878-43.17 66.013-67.601 126.96-81.143l10.918-2.278c32.186-7.262 65.737-12.151 99.513-14.443 2.877-0.845 9.734-1.63 17.218-2.010l6.153-0.23c3.166-0.077 6.758-0.094 12.109-0.094 48.546-2.671 98.876-1.894 148.971 2.372 26.697 1.826 53.572 5.316 80.222 10.432l19.942 4.139c65.813 12.983 115.093 37.675 136.683 83.209 16.004 33.805 16.004 73.033 0.009 106.825-21.538 45.414-70.191 69.901-137.19 83.703-26.287 5.611-53.001 9.766-79.902 12.416l-19.669 1.664c-61.602 5.436-123.558 5.436-185.158 0zM599.194 266.112l0.538-0.043c30.878-2.172 61.564-6.507 91.84-12.971 49.766-10.253 83.541-27.251 94.225-49.783 8.047-16.99 8.047-36.736-0.009-53.743-9.984-21.056-40.316-37.321-84.156-47.262l-9.6-2.035c-30.869-6.886-61.457-11.324-92.241-13.436-47.774-4.062-95.262-4.796-142.626-2.236l-16.794 0.29c-4.663 0.235-8.593 0.687-12.233 1.417-28.833 2.176-54.777 5.619-79.967 10.615l-15.041 3.183c-49.922 9.783-83.994 26.854-95.040 49.694-3.866 8.192-5.93 17.438-5.918 26.799-0.035 9.306 2.003 18.342 5.958 26.581 10.741 21.568 46.848 40.141 94.075 49.873 30.493 6.532 61.165 10.863 92.027 13.013 58.584 5.163 116.939 5.163 174.961 0.043z" />
<glyph unicode="&#xe94a;" glyph-name="Scan" data-tags="Scan" d="M390.181 801.495c-0.011 16.858-13.946 30.516-31.126 30.505l-69.696-0.043-8.421-0.212c-89.266-4.401-160.233-76.785-160.233-165.428v-79.645l0.284-4.142c2.060-14.899 15.075-26.382 30.823-26.382 17.18 0 31.107 13.666 31.107 30.524v79.645l0.209 6.61c3.473 54.641 49.711 97.918 106.285 97.981l69.68 0.043 4.221 0.281c15.182 2.031 26.877 14.809 26.867 30.262zM734.281 832c90.223 0 164.399-70.101 168.811-157.6l0.209-8.252v-79.475c0-16.858-13.926-30.524-31.108-30.524-15.748 0-28.762 11.483-30.822 26.382l-0.286 4.142v79.475c0 55.371-44.489 101.157-100.083 104.597l-6.72 0.207h-68.177c-17.178 0-31.108 13.666-31.108 30.524 0 15.453 11.703 28.224 26.889 30.245l4.22 0.279h68.177zM950.225 444.779c17.182 0 31.108-13.666 31.108-30.524 0-15.454-11.703-28.224-26.884-30.246l-4.224-0.277h-46.925v-153.877c0-88.508-71.454-161.318-160.614-165.649l-8.405-0.205h-68.177c-17.178 0-31.108 13.666-31.108 30.524 0 15.454 11.703 28.224 26.889 30.246l4.22 0.277h68.177c56.41 0 103.087 43.682 106.594 98.21l0.209 6.596v153.877h-658.165v-154.048c0-55.501 44.062-100.911 99.743-104.38l6.736-0.213 69.696-0.043c17.18-0.009 31.098-13.683 31.087-30.541-0.010-15.454-11.721-28.22-26.905-30.229l-4.221-0.277-69.712 0.043c-90.342 0.102-164.047 69.803-168.431 157.376l-0.207 8.265v154.048h-46.931c-17.18 0-31.107 13.666-31.107 30.524 0 15.454 11.703 28.224 26.886 30.246l4.221 0.277h876.451z" />
<glyph unicode="&#xe94b;" glyph-name="Search" data-tags="Search" d="M495.424 874.667c-226.486 0-410.091-179.549-410.091-401.037 0-221.483 183.604-401.033 410.091-401.033 96.87 0 185.894 32.845 256.064 87.765l133.295-130.010 3.546-2.987c12.373-8.956 29.918-7.936 41.118 3.042 12.318 12.075 12.292 31.633-0.060 43.678l-131.725 128.482c66.974 71.377 107.857 166.554 107.857 271.061 0 221.487-183.607 401.037-410.095 401.037zM495.424 812.896c191.603 0 346.927-151.894 346.927-339.267 0-187.371-155.324-339.264-346.927-339.264-191.601 0-346.925 151.893-346.925 339.264s155.325 339.267 346.925 339.267z" />
<glyph unicode="&#xe94c;" glyph-name="Send" data-tags="Send" d="M926.063 764.097c13.295 59.975-42.479 114.093-102.865 96.617l-674.46-196.521c-62.703-23.598-72.323-110.926-13.594-147.081l276.289-170.061 166.218-275.375 3.738-5.687c38.963-54.592 125.248-41.365 144.917 24.806l198.195 667.287 1.562 6.015zM844.143 799.865c12.322 1.323 22.852-10.662 19.017-23.531l-198.199-667.308-1.301-3.273c-6.195-12.181-23.723-13.419-31.211-1.007l-157.355 260.651 224.107 225.549 3.085 3.599c9.254 12.559 8.162 30.333-3.238 41.655l-3.597 3.087c-12.561 9.254-30.332 8.162-41.655-3.237l-223.799-225.256-261.302 160.82-2.821 2.119c-10.147 9.244-6.732 27.109 7.173 31.145l671.098 194.986z" />
<glyph unicode="&#xe94d;" glyph-name="Setting" data-tags="Setting" d="M538.287 874.667h-52.693c-29.679 0-58.133-11.586-79.067-32.195-18.555-18.267-29.906-42.351-32.094-67.978l-0.363-8.277c-0.405-26.953-22.179-47.98-48.906-47.977-6.061 0.063-12.356 1.446-18.151 4.052l-5.685 2.969c-52.514 29.506-120.792 11.433-151.602-40.958l-27.703-44.599c-29.457-50.071-14.928-112.975 32.623-145.372l6.613-4.156c16.299-9.254 25.617-25.067 25.617-42.176 0-15.735-7.892-30.451-21.053-39.373l-4.493-2.761c-49.265-27.891-68.675-89.455-43.912-140.668l3.619-6.818 27.193-46.003c14.134-24.998 38.355-43.831 67.001-51.806 25.39-7.070 52.486-5.116 76.509 5.47l7.596 3.716c12.785 7.241 25.992 8.977 38.388 5.726s22.954-11.217 29.326-22.127c3.513-5.807 5.575-11.797 6.312-18.005l0.362-6.298c-0.063-58.624 50.051-107.721 111.871-107.721h52.706c58.372 0 106.82 43.934 111.556 100.634l0.346 7.322c-0.034 14.161 5.082 26.342 14.234 35.311s21.585 13.978 34.53 13.918c5.948-0.166 12.484-1.626 18.543-4.279l5.807-2.931c48.998-27.708 113.199-13.474 146.266 33.114l4.245 6.481 28.143 45.935c15.151 25.476 19.255 55.411 11.605 83.516-6.78 24.913-22.323 46.647-43.844 61.393l-7.121 4.471c-12.382 7.014-20.54 17.429-23.868 29.649s-1.545 25.237 4.958 36.164c3.597 6.153 8.38 11.273 14.118 15.194l10.978 6.758c44.454 29.568 61.103 87.77 37.705 136.699l-2.428 4.765c-0.525 1.242-1.131 2.454-1.822 3.627l-26.163 44.478c-29.107 49.498-92.049 68.707-144.525 44.535l-6.993-3.537c-12.54-7.189-25.779-9.006-38.246-5.835s-23.134 11.071-29.649 21.956c-3.345 5.521-5.406 11.51-6.144 17.715l-0.363 6.301c0.922 26.794-10.487 55.503-31.573 76.755s-50.057 33.237-80.307 33.225zM485.594 812.896h52.706c13.227 0.006 25.877-5.229 35.085-14.511 9.212-9.282 14.191-21.82 13.811-34.759l0.563-10.754c1.907-16.439 6.831-30.741 14.613-43.589 14.899-24.896 39.433-43.063 68.105-50.357s59.127-3.115 84.651 11.616l4.403 2.197 4.736 1.858c20.838 6.851 45.393-1.82 57.195-21.887l24.951-42.461 0.542-1.196 3.017-5.698c10.095-21.171 1.66-47.951-20.19-60.471l-6.857-4.232c-14.545-9.898-25.702-21.84-33.822-35.724-14.827-24.939-18.931-54.874-11.281-82.978 6.955-25.553 23.1-47.676 45.312-62.383l11.618-7.198c8.196-5.653 14.955-15.104 17.903-25.933 3.328-12.22 1.545-25.237-4.954-36.164l-27.494-44.89-3.093-4.736c-12.723-17.882-37.82-24.521-58.982-15.424l-13.478 6.75c-15.036 6.626-29.747 9.907-44.693 10.3-30.46 0.154-59.055-11.371-80.102-31.996-21.052-20.625-32.815-48.64-32.674-77.807l-0.239-4.651c-1.988-23.518-23.159-42.718-48.644-42.718h-52.706c-25.199 0-45.943 18.679-48.597 42.679l-0.862 15.083c-1.907 16.439-6.831 30.741-14.615 43.593-14.468 24.785-38.859 43.191-67.499 50.697-28.639 7.509-59.153 3.499-84.76-11.14l-4.639-2.223c-9.233-4.036-21.068-4.89-32.156-1.801-12.511 3.482-23.089 11.708-29.393 22.852l-26.848 45.376-2.402 4.548c-10.17 21.090-1.725 47.872 20.156 60.275l6.647 4.096c31.229 21.146 49.295 54.827 49.295 90.863 0 36.57-18.584 70.541-49.22 90.837l-11.124 6.901c-19.656 13.423-26.004 40.909-13.31 62.494l27.703 44.599c13.838 23.514 43.658 31.407 67.043 18.278l8.208-4.241c15.329-6.941 30.362-10.243 45.61-10.399 59.154-0.008 107.526 44.506 111.938 101.226l0.576 13.009c0.866 9.779 5.803 20.252 13.867 28.194 9.105 8.96 21.474 13.998 34.381 13.998zM512.137 587.442c-78.601 0-142.324-62.429-142.324-139.442s63.724-139.443 142.324-139.443c78.605 0 142.327 62.43 142.327 139.443s-63.723 139.442-142.327 139.442zM512.137 525.67c43.785 0 79.279-34.773 79.279-77.67s-35.494-77.67-79.279-77.67c-43.785 0-79.275 34.773-79.275 77.67s35.49 77.67 79.275 77.67z" />
<glyph unicode="&#xe94e;" glyph-name="Shield-Done" data-tags="Shield Done" d="M485.773 870.328l-283.459-96.783c-31.734-10.795-52.981-39.91-52.981-72.616v-283.209c0-86.263 32.124-169.353 89.989-234.082 27.257-30.554 61.986-55.966 104.115-78.076l153.484-80.465c9.579-5.022 21.111-5.018 30.686 0.009l153.216 80.414c42.014 22.076 76.745 47.539 104.004 78.101 57.779 64.683 89.839 147.721 89.839 233.933v283.376c0 32.705-21.248 61.821-53.018 72.628l-283.383 96.757c-16.964 5.801-35.494 5.801-52.493 0.014zM516.826 811.114l283.443-96.779c5.897-2.005 9.805-7.361 9.805-13.406v-283.376c0-71.066-26.423-139.503-74.039-192.815l-8.461-8.96c-20.493-20.561-46.306-38.677-77.466-55.049l-137.894-72.337-138.092 72.393c-35.72 18.748-64.343 39.693-86.013 63.983-47.706 53.363-74.183 121.852-74.183 192.951v283.209c0 6.045 3.909 11.401 9.768 13.394l283.468 96.786c3.127 1.065 6.562 1.065 9.664 0.005zM672.226 565.764c-12.612 12.254-33.062 12.254-45.675 0l-145.041-140.898-58.607 57.003-3.622 3.042c-12.641 9.118-30.583 8.111-42.053-3.029-12.616-12.25-12.621-32.119-0.012-44.378l81.475-79.202 3.622-3.038c12.642-9.118 30.588-8.111 42.057 3.034l167.855 163.089 3.127 3.52c9.382 12.284 8.337 29.717-3.127 40.858z" />
<glyph unicode="&#xe94f;" glyph-name="Shield-Fail" data-tags="Shield Fail" d="M202.314 773.545l283.459 96.783c16.998 5.787 35.529 5.787 52.493-0.014l283.383-96.757c31.77-10.807 53.018-39.922 53.018-72.628v-283.376c0-86.17-32.073-169.212-89.856-233.954-27.311-30.571-62.037-56.038-103.987-78.080l-153.216-80.414c-9.574-5.026-21.107-5.030-30.686-0.009l-153.47 80.457c-42.108 22.071-76.844 47.501-104.129 78.084-57.865 64.73-89.989 147.819-89.989 234.082v283.209c0 32.705 21.247 61.821 52.981 72.616zM800.269 714.335l-283.443 96.779c-3.102 1.060-6.537 1.060-9.664-0.005l-283.468-96.786c-5.859-1.993-9.768-7.349-9.768-13.394v-283.209c0-71.1 26.478-139.588 74.183-192.951 21.699-24.32 50.314-45.269 86.013-63.983l138.087-72.393 137.899 72.337c31.108 16.346 56.922 34.466 77.444 55.031l8.469 8.969c47.612 53.346 74.052 121.801 74.052 192.823v283.376c0 6.045-3.908 11.401-9.805 13.406zM408.25 558.413c11.466 11.14 29.408 12.153 42.050 3.038l3.622-3.038 58.082-56.431 58.082 56.431c12.612 12.254 33.058 12.254 45.67 0 11.469-11.141 12.51-28.574 3.127-40.858l-3.127-3.52-58.078-56.431 58.069-56.422c12.617-12.254 12.617-32.124 0-44.378-11.465-11.14-29.406-12.156-42.048-3.038l-3.622 3.038-58.074 56.422-58.074-56.422c-12.612-12.254-33.060-12.254-45.672 0-11.466 11.14-12.509 28.574-3.127 40.858l3.127 3.52 58.071 56.422-58.080 56.431c-12.613 12.254-12.613 32.123 0 44.378z" />
<glyph unicode="&#xe950;" glyph-name="Show" data-tags="Show" d="M524.297 789.128l-12.211 0.206c-176.679 0-335.904-124.718-424.153-328.781-3.465-8.013-3.465-17.092 0-25.105l6.115-13.764c87.131-190.989 237.705-309.231 405.656-314.812l12.211-0.205c176.678 0 335.902 124.719 424.154 328.781 3.507 8.115 3.46 17.314-0.128 25.395l-5.943 13.372c-87.343 191.347-237.978 309.339-405.7 314.913zM512.384 725.785l10.193-0.219 11.392-0.593c136.418-9.659 261.871-110.809 337.668-276.934l-0.397-1.024c-77.696-169.702-207.479-271.454-348.194-276.561l-10.876-0.162-10.97 0.145-11.362 0.593c-132.177 9.361-254.047 104.836-330.302 261.623l-7.217 15.386 6.681 14.204c80.409 166.103 211.836 263.506 353.383 263.543zM511.979 613.826c-92.177 0-166.869-74.226-166.869-165.834 0-91.575 74.7-165.79 166.869-165.79 92.173 0 166.912 74.223 166.912 165.79 0 91.603-74.731 165.834-166.912 165.834zM511.979 550.239c56.841 0 102.912-45.765 102.912-102.247 0-56.444-46.076-102.204-102.912-102.204-56.823 0-102.869 45.747-102.869 102.204 0 56.495 46.042 102.247 102.869 102.247z" />
<glyph unicode="&#xe951;" glyph-name="Star" data-tags="Star" d="M231.292 76.8c11.264-21.035 33.237-34.176 57.131-34.133 10.069-0.043 20.053 2.304 29.013 6.827l194.218 101.547c0.512 0.299 1.109 0.469 1.707 0.427l192.896-100.693c9.344-5.035 19.797-7.637 30.379-7.595 3.371 0 6.784 0.299 10.112 0.768 34.731 5.675 58.453 38.187 53.333 72.96l-37.547 213.76c-0.209 0.303-0.273 0.324-0.29 0.358-0.009 0.017-0.009 0.030-0.009 0.068 0 0.128 0.299 0.427 0.299 0.427l156.587 151.467c23.125 22.315 26.069 58.283 6.827 84.053-10.453 13.483-25.771 22.357-42.667 24.747l-215.979 31.147c-0.384 0-0.811 0.427-1.237 0.853l-96.469 193.707c-10.88 21.888-33.152 35.712-57.6 35.84-7.083 0-14.165-1.109-20.907-3.413-16.171-5.504-29.525-17.109-37.12-32.427l-96.341-193.152c0-0.896-0.896-1.28-1.749-1.28l-215.467-31.147c-13.184-2.219-25.472-8.107-35.413-17.067-12.587-12.331-19.669-29.269-19.669-46.933 0.043-16.768 6.784-32.811 18.773-44.501l157.867-151.893c0.341-0.341 0.469-0.811 0.469-1.28l-38.016-212.907c-2.261-13.909 0.171-28.16 6.869-40.533zM510.758 790.741l0.427 0.299h0.811l0.384-0.384c0.384 0 0.725-0.085 1.024-0.341 0.256-0.256 0.384-0.597 0.341-0.981l96.427-192.811c9.259-18.987 27.264-32.213 48.171-35.413l215.979-31.403c0.384 0 0.768-0.085 1.109-0.256 0.213-0.043 0.384-0.043 0.597 0l0.427-0.384-0.427-0.939-156.587-151.851c-15.573-14.592-22.528-36.181-18.389-57.131l37.589-212.523-0.853-0.811h-0.896c-0.171-0.085-0.341-0.085-0.512 0-0.427 0.043-0.853 0.213-1.237 0.427h-0.384l-192 100.267c-9.216 4.779-19.456 7.339-29.867 7.296-10.709 0-21.291-2.688-30.763-7.723l-193.237-101.333c-0.213-0.043-0.469-0.043-0.683 0-0.896 0-1.664 0.597-1.877 1.451v0.853l37.547 212.48c3.499 20.779-3.328 41.984-18.347 56.747l-157.867 151.467c-0.043 0.64 0.043 1.195 0.384 1.749l2.603 0.853 214.613 30.763c20.907 3.243 38.869 16.427 48.171 35.413l96.469 193.28c0.213 0.384 0.469 0.725 0.853 0.939z" />
<glyph unicode="&#xe952;" glyph-name="Swap" data-tags="Swap" d="M313.964 822.178c-12.549 9.347-30.394 8.308-41.766-3.116l-173.985-174.791-3.090-3.596c-9.266-12.549-8.192-30.324 3.194-41.658l3.596-3.090c12.549-9.266 30.324-8.192 41.658 3.194l119.301 119.876v-503.56l0.292-4.339c2.119-15.62 15.508-27.661 31.708-27.661 17.673 0 32 14.327 32 32v503.555l119.309-119.871 3.584-3.107c12.506-9.324 30.285-8.332 41.673 3.002 12.527 12.468 12.574 32.729 0.102 45.255l-174.205 174.983c-0.977 0.963-2.015 1.863-3.108 2.694l-0.264 0.229zM750.195 685.027c-2.121 15.619-15.509 27.658-31.71 27.658-17.673 0-32-14.327-32-32v-503.537l-119.309 119.855-3.58 3.106c-12.506 9.323-30.289 8.333-41.673-3.004-12.527-12.467-12.574-32.725-0.107-45.252l174.208-174.985c0.977-0.964 2.014-1.865 3.106-2.692l0.265-0.23c12.548-9.348 30.396-8.307 41.766 3.115l173.986 174.793 3.089 3.597c9.267 12.548 8.192 30.323-3.196 41.655-12.527 12.471-32.785 12.425-45.252-0.102l-119.305-119.817v503.499l-0.29 4.342z" />
<glyph unicode="&#xe953;" glyph-name="Tick-Square" data-tags="Tick Square" d="M696.934 874.659h-369.876c-144.963 0-241.707-103.791-241.707-252.416v-348.502c0-148.766 96.485-252.416 241.707-252.416h369.833c145.263 0 241.792 103.65 241.792 252.416v348.502c0 148.757-96.521 252.416-241.749 252.416zM327.058 810.659h369.876c108.821 0 177.749-74.025 177.749-188.416v-348.502c0-114.394-68.932-188.416-177.792-188.416h-369.833c-108.81 0-177.707 74.014-177.707 188.416v348.502c0 114.245 69.135 188.416 177.707 188.416zM686.519 571.868c-12.497 12.497-32.759 12.497-45.257 0l-179.908-179.846-78.628 78.605-3.59 3.098c-12.529 9.293-30.307 8.256-41.665-3.11-12.495-12.497-12.49-32.759 0.009-45.252l101.29-101.248 3.588-3.098c12.527-9.293 30.302-8.256 41.664 3.102l202.496 202.496 3.098 3.588c9.293 12.528 8.26 30.305-3.098 41.666z" />
</font>
</defs>
</svg>
