<?xml version="1.0" standalone="no"?>
<!DOCTYPE svg PUBLIC "-//W3C//DTD SVG 1.1//EN" "http://www.w3.org/Graphics/SVG/1.1/DTD/svg11.dtd" >
<svg xmlns="http://www.w3.org/2000/svg">
<metadata>
<json>
<![CDATA[
{
	"fontFamily": "Iconly-bulk",
	"majorVersion": 2,
	"minorVersion": 0,
	"fontURL": "https://ui8.net/piqodesign",
	"description": "Iconly - Essential icons\nFont generated by IcoMoon.",
	"copyright": "MIT",
	"designer": "Piqo Design",
	"designerURL": "https://dribbble.com/piqodesign",
	"license": "MIT",
	"licenseURL": "https://opensource.org/licenses/MIT",
	"version": "Version 2.0",
	"fontId": "Iconly-bulk",
	"psName": "Iconly-bulk",
	"subFamily": "Regular",
	"fullName": "Iconly-bulk"
}
]]>
</json>
</metadata>
<defs>
<font id="Iconly-bulk" horiz-adv-x="1024">
<font-face units-per-em="1024" ascent="960" descent="-64" />
<missing-glyph horiz-adv-x="1024" />
<glyph unicode="&#x20;" horiz-adv-x="512" d="" />
<glyph unicode="&#xe900;" d="M461.214 610.027l-13.959 157.834c0 35.421 28.998 64.139 64.764 64.139s64.764-28.718 64.764-64.139l-13.959-157.834c0-27.787-22.747-50.315-50.805-50.315-28.105 0-50.805 22.528-50.805 50.315z" />
<glyph unicode="&#xe901;" d="M463.78 80.011c-2.491 2.467-13.019 11.683-21.76 20.34-54.753 50.501-144.285 182.363-171.685 251.342-4.371 10.473-13.677 36.957-14.334 51.153 0 13.545 3.149 26.484 9.353 38.818 8.695 15.406 22.418 27.694 38.586 34.49 11.186 4.329 44.789 11.124 45.4 11.124 36.706 6.749 96.394 10.426 162.379 10.426 62.79 0 120.034-3.677 157.35-9.216 0.658-0.605 42.346-7.401 56.633-14.801 26.131-13.545 42.299-40.029 42.299-68.374v-2.467c-0.611-18.478-16.825-57.297-17.389-57.297-27.4-65.302-112.608-194.046-169.241-245.804 0 0-14.569-14.615-23.64-20.945-13.066-9.868-29.233-14.801-45.4-14.801-18.047 0-34.826 5.539-48.549 16.011z" />
<glyph unicode="&#xe902;" d="M398.905 326.070c-169.122 0-313.572-26.125-313.572-130.544 0-104.501 143.531-131.526 313.572-131.526 169.122 0 313.572 26.125 313.572 130.544 0 104.501-143.531 131.526-313.572 131.526z" />
<glyph unicode="&#xe903;" d="M398.905 425.608c115.184 0 207.489 90.396 207.489 203.196s-92.306 203.196-207.489 203.196c-115.142 0-207.489-90.396-207.489-203.196s92.347-203.196 207.489-203.196z" />
<glyph unicode="&#xe904;" d="M690.066 625.12c0-57.443-17.618-111.042-48.512-155.566-3.215-4.579-0.376-10.753 5.219-11.734 7.765-1.267 15.739-2.044 23.88-2.208 80.992-2.085 153.676 48.98 173.756 125.884 29.767 114.109-57.571 216.565-168.83 216.565-12.065 0-23.63-1.227-34.902-3.475-1.545-0.327-3.215-1.063-4.050-2.371-1.085-1.676-0.292-3.843 0.793-5.274 33.44-45.913 52.645-101.803 52.645-161.821z" />
<glyph unicode="&#xe905;" d="M929.242 312.774c-14.821 30.95-50.599 52.169-105.039 62.594-25.675 6.133-95.228 14.841-159.896 13.615-0.96-0.123-1.503-0.777-1.586-1.186-0.125-0.654 0.167-1.635 1.419-2.33 29.892-14.473 145.409-77.435 130.881-210.228-0.626-5.806 4.091-10.712 9.978-9.894 28.431 3.966 101.574 19.379 124.243 67.296 12.566 25.348 12.566 54.785 0 80.134z" />
<glyph unicode="&#xe906;" d="M509.825 339.63c-147.199 0-271.4-24.053-271.4-116.885 0-92.87 125.003-116.078 271.4-116.078 147.199 0 271.4 24.053 271.4 116.885 0 92.87-125.003 116.078-271.4 116.078z" />
<glyph unicode="&#xe907;" d="M509.825 428.073c99.674 0 179.596 80.382 179.596 180.63 0 100.286-79.922 180.63-179.596 180.63s-179.596-80.344-179.596-180.63c0-100.248 79.922-180.63 179.596-180.63z" />
<glyph unicode="&#xe908;" d="M899.753 566.645c25.788 101.439-49.818 192.541-146.092 192.541-10.468 0-20.477-1.153-30.257-3.112-1.299-0.307-2.751-0.961-3.515-2.113-0.879-1.46-0.229-3.42 0.726-4.688 28.92-40.806 45.539-90.488 45.539-143.82 0-51.104-15.243-98.749-41.986-138.287-2.751-4.073-0.306-9.568 4.546-10.413 6.724-1.191 13.601-1.806 20.63-1.998 70.104-1.844 133.026 43.534 150.409 111.89z" />
<glyph unicode="&#xe909;" d="M973.196 327.811c-12.836 27.511-43.82 46.377-90.925 55.638-22.235 5.456-82.406 13.141-138.374 12.103-0.84-0.115-1.299-0.692-1.375-1.076-0.115-0.538 0.115-1.46 1.223-2.036 25.864-12.872 125.843-68.855 113.274-186.931-0.535-5.11 3.553-9.529 8.634-8.761 24.603 3.535 87.907 17.214 107.544 59.826 10.85 22.516 10.85 48.683 0 71.238z" />
<glyph unicode="&#xe90a;" d="M300.579 756.062c-9.742 1.998-19.79 3.112-30.257 3.112-96.274 0-171.879-91.103-146.053-192.541 17.345-68.356 80.266-113.734 150.37-111.89 7.030 0.192 13.944 0.845 20.63 1.998 4.852 0.845 7.297 6.34 4.546 10.413-26.743 39.576-41.986 87.183-41.986 138.287 0 53.371 16.657 103.052 45.577 143.82 0.917 1.268 1.605 3.228 0.688 4.688-0.764 1.191-2.178 1.806-3.515 2.113z" />
<glyph unicode="&#xe90b;" d="M141.72 383.46c-47.105-9.26-78.050-28.126-90.887-55.638-10.888-22.555-10.888-48.721 0-71.276 19.637-42.573 82.941-56.291 107.544-59.787 5.081-0.768 9.131 3.612 8.596 8.761-12.569 118.038 87.41 174.021 113.313 186.893 1.070 0.615 1.299 1.499 1.184 2.075-0.076 0.384-0.497 0.961-1.337 1.037-56.007 1.076-116.14-6.609-138.413-12.065z" />
<glyph unicode="&#xe90c;" d="M653.361 789.333c-2.017-10.368-3.022-20.907-3.001-31.469 0-94.762 76.933-171.582 171.834-171.582 10.45 0.051 20.873 1.055 31.14 2.997v0-340.168c0-143.11-84.416-227.778-227.736-227.778v0h-312.152c-143.695 0-228.111 84.667-228.111 227.778v0 311.696c0 143.11 84.416 228.527 228.111 228.527v0zM658.517 533.578l-5.006-0.313c-8.343-1.2-15.843-5.727-20.785-12.545v0l-102.8-132.246-117.057 92.16c-6.683 5.207-15.185 7.505-23.586 6.377s-15.993-5.587-21.061-12.372v0l-126.062-162.591c-4.431-5.523-6.817-12.404-6.753-19.481v0l0.111-4.709c1.222-12.373 9.709-23.065 21.864-26.902 13.675-4.317 28.544 1.131 36.179 13.254v0l105.426 136.367 117.057-91.785c6.658-5.368 15.216-7.801 23.707-6.741s16.185 5.522 21.315 12.361v0l121.935 157.346v0.749c10.439 14.027 7.775 33.806-6.003 44.581-6.669 5.148-15.143 7.376-23.486 6.176z" />
<glyph unicode="&#xe90d;" d="M938.667 768c0-58.91-47.756-106.667-106.667-106.667s-106.667 47.756-106.667 106.667c0 58.91 47.756 106.667 106.667 106.667s106.667-47.756 106.667-106.667z" />
<glyph unicode="&#xe90e;" d="M900.311 550.918h-51.332v50.186c0 21.426-17.184 38.896-38.356 38.896-21.129 0-38.356-17.47-38.356-38.896v-50.186h-51.244c-21.173 0-38.356-17.47-38.356-38.896s17.184-38.896 38.356-38.896h51.244v-50.231c0-21.426 17.227-38.896 38.356-38.896 21.173 0 38.356 17.47 38.356 38.896v50.231h51.332c21.129 0 38.356 17.47 38.356 38.896s-17.227 38.896-38.356 38.896z" />
<glyph unicode="&#xe90f;" d="M405.333 319.339c-172.62 0-320-27.598-320-137.86 0-110.219 146.483-138.812 320-138.812 172.577 0 320 27.598 320 137.86s-146.483 138.812-320 138.812z" />
<glyph unicode="&#xe910;" d="M405.333 424.354c117.528 0 211.739 95.425 211.739 214.468s-94.211 214.512-211.739 214.512c-117.528 0-211.739-95.468-211.739-214.512s94.211-214.468 211.739-214.468z" />
<glyph unicode="&#xe911;" d="M463.669 652.188l180.020-292.186c4.011-6.544 3.627-14.922-1.109-21.049-21.377-27.76-43.053-52.56-61.272-69.108 0 0-14.593-14.255-23.852-20.424-12.63-9.962-29.143-14.755-45.186-14.755-18.006 0-35.031 5.252-48.642 15.714-2.432 2.376-13.142 11.421-21.889 19.965-54.445 49.851-144.391 179.98-171.657 248.421-4.395 9.962-13.569 36.555-14.081 50.351 0 13.296 2.901 26.134 9.259 38.472 8.747 15.172 22.316 27.051 38.402 33.72 11.179 4.293 44.717 10.921 45.698 10.921 23.937 4.293 57.56 7.503 96.816 9.087 7.040 0.292 13.867-3.251 17.494-9.128z" />
<glyph unicode="&#xe912;" d="M560.63 632.648c-7.979 12.88 2.219 29.094 17.537 28.468 35.927-1.542 67.587-4.21 91.141-7.461 0.512-0.5 42.285-7.128 56.408-14.755 26.241-13.296 42.285-39.389 42.285-67.44v-2.334c-0.469-18.090-16.513-56.562-17.494-56.562-8.064-19.382-21.718-44.682-38.146-71.9-7.424-12.254-25.644-12.546-33.196-0.292l-118.534 192.276z" />
<glyph unicode="&#xe913;" d="M540.127 801.668v-361.728c0-16.734-13.581-30.316-30.316-30.316s-30.316 13.581-30.316 30.316v361.728c0 16.734 13.581 30.316 30.316 30.316s30.316-13.581 30.316-30.316z" />
<glyph unicode="&#xe914;" d="M742.268 439.932c0-5.659-1.576-11.237-4.648-16.168l-202.146-320.781c-5.578-8.812-15.239-14.188-25.667-14.188s-20.089 5.376-25.667 14.188l-202.146 320.781c-5.861 9.337-6.225 21.14-0.849 30.801 5.336 9.701 15.481 15.683 26.516 15.683h404.291c11.035 0 21.181-5.982 26.516-15.683 2.547-4.568 3.8-9.62 3.8-14.632z" />
<glyph unicode="&#xe915;" d="M938.675 448.004c0-235.307-191.403-426.667-426.667-426.667s-426.667 191.36-426.667 426.667c0 235.264 191.403 426.667 426.667 426.667s426.667-191.403 426.667-426.667z" />
<glyph unicode="&#xe916;" d="M692.092 509.547c0-8.149-3.115-16.341-9.344-22.571l-148.053-148.779c-6.016-6.016-14.165-9.387-22.699-9.387-8.491 0-16.64 3.371-22.656 9.387l-148.139 148.779c-12.459 12.501-12.459 32.725 0.085 45.227 12.544 12.459 32.811 12.416 45.269-0.085l125.44-125.995 125.44 125.995c12.459 12.501 32.683 12.544 45.227 0.085 6.315-6.229 9.429-14.464 9.429-22.656z" />
<glyph unicode="&#xe917;" d="M85.329 622.255v-348.501c0-150.997 97.109-252.416 241.707-252.416h369.92c144.597 0 241.707 101.419 241.707 252.416v348.501c0 150.955-97.152 252.416-241.749 252.416h-369.877c-144.597 0-241.707-101.461-241.707-252.416z" />
<glyph unicode="&#xe918;" d="M329.412 411.503l159.915-160.64c12.032-12.075 33.323-12.075 45.397 0l159.915 160.64c12.459 12.544 12.416 32.811-0.128 45.269s-32.768 12.459-45.269-0.085l-105.259-105.685v271.147c0 17.707-14.336 32-32 32s-32-14.293-32-32v-271.147l-105.216 105.685c-6.272 6.272-14.464 9.387-22.699 9.387-8.149 0-16.341-3.115-22.571-9.301-12.501-12.459-12.544-32.725-0.085-45.269z" />
<glyph unicode="&#xe919;" d="M716.188 496.331l-292.186-180.020c-6.544-4.011-14.922-3.627-21.049 1.109-27.76 21.377-52.56 43.053-69.108 61.272 0 0-14.255 14.593-20.424 23.852-9.962 12.63-14.755 29.143-14.755 45.186 0 18.006 5.252 35.031 15.714 48.642 2.376 2.432 11.421 13.142 19.965 21.889 49.851 54.445 179.98 144.391 248.421 171.657 9.962 4.395 36.555 13.569 50.351 14.081 13.296 0 26.134-2.901 38.472-9.259 15.172-8.747 27.051-22.316 33.72-38.402 4.293-11.179 10.921-44.717 10.921-45.698 4.293-23.937 7.503-57.56 9.087-96.816 0.292-7.040-3.251-13.867-9.128-17.494z" />
<glyph unicode="&#xe91a;" d="M696.648 399.37c12.88 7.979 29.094-2.219 28.468-17.537-1.542-35.927-4.21-67.587-7.461-91.141-0.5-0.512-7.128-42.285-14.755-56.408-13.296-26.241-39.389-42.285-67.44-42.285h-2.334c-18.090 0.469-56.562 16.513-56.562 17.494-19.382 8.064-44.682 21.718-71.9 38.146-12.254 7.424-12.546 25.644-0.292 33.196l192.276 118.534z" />
<glyph unicode="&#xe91b;" d="M865.668 419.873h-361.728c-16.734 0-30.316 13.581-30.316 30.316s13.581 30.316 30.316 30.316h361.728c16.734 0 30.316-13.581 30.316-30.316s-13.581-30.316-30.316-30.316z" />
<glyph unicode="&#xe91c;" d="M503.932 217.732c-5.659 0-11.237 1.576-16.168 4.648l-320.781 202.146c-8.812 5.578-14.188 15.239-14.188 25.667s5.376 20.089 14.188 25.667l320.781 202.146c9.337 5.861 21.14 6.225 30.801 0.849 9.701-5.336 15.683-15.481 15.683-26.516v-404.291c0-11.035-5.982-21.181-15.683-26.516-4.568-2.547-9.62-3.8-14.632-3.8z" />
<glyph unicode="&#xe91d;" d="M512.004 21.325c-235.307 0-426.667 191.403-426.667 426.667s191.36 426.667 426.667 426.667c235.264 0 426.667-191.403 426.667-426.667s-191.403-426.667-426.667-426.667z" />
<glyph unicode="&#xe91e;" d="M573.547 267.908c-8.149 0-16.341 3.115-22.571 9.344l-148.779 148.053c-6.016 6.016-9.387 14.165-9.387 22.699 0 8.491 3.371 16.64 9.387 22.656l148.779 148.139c12.501 12.459 32.725 12.459 45.227-0.085 12.459-12.544 12.416-32.811-0.085-45.269l-125.995-125.44 125.995-125.44c12.501-12.459 12.544-32.683 0.085-45.227-6.229-6.315-14.464-9.429-22.656-9.429z" />
<glyph unicode="&#xe91f;" d="M686.255 874.671h-348.501c-150.997 0-252.416-97.109-252.416-241.707v-369.92c0-144.597 101.419-241.707 252.416-241.707h348.501c150.955 0 252.416 97.152 252.416 241.749v369.877c0 144.597-101.461 241.707-252.416 241.707z" />
<glyph unicode="&#xe920;" d="M475.503 630.588l-160.64-159.915c-12.075-12.032-12.075-33.323 0-45.397l160.64-159.915c12.544-12.459 32.811-12.416 45.269 0.128s12.459 32.768-0.085 45.269l-105.685 105.259h271.147c17.707 0 32 14.336 32 32s-14.293 32-32 32h-271.147l105.685 105.216c6.272 6.272 9.387 14.464 9.387 22.699 0 8.149-3.115 16.341-9.301 22.571-12.459 12.501-32.725 12.544-45.269 0.085z" />
<glyph unicode="&#xe921;" d="M674.027 498.786l157.834 13.959c35.421 0 64.139-28.998 64.139-64.764s-28.718-64.764-64.139-64.764l-157.834 13.959c-27.787 0-50.315 22.747-50.315 50.805 0 28.105 22.528 50.805 50.315 50.805z" />
<glyph unicode="&#xe922;" d="M144.011 496.22c2.467 2.491 11.683 13.019 20.34 21.76 50.501 54.753 182.363 144.285 251.342 171.685 10.473 4.371 36.957 13.677 51.153 14.334 13.545 0 26.484-3.149 38.818-9.353 15.406-8.695 27.694-22.418 34.49-38.586 4.329-11.186 11.124-44.789 11.124-45.4 6.749-36.706 10.426-96.394 10.426-162.379 0-62.79-3.677-120.034-9.216-157.35-0.605-0.658-7.401-42.346-14.801-56.633-13.545-26.131-40.029-42.299-68.374-42.299h-2.467c-18.478 0.611-57.297 16.825-57.297 17.389-65.302 27.4-194.046 112.608-245.804 169.241 0 0-14.615 14.569-20.945 23.64-9.868 13.066-14.801 29.233-14.801 45.4 0 18.047 5.539 34.826 16.011 48.549z" />
<glyph unicode="&#xe923;" d="M307.812 399.669l292.186 180.020c6.544 4.011 14.922 3.627 21.049-1.109 27.76-21.377 52.56-43.053 69.108-61.272 0 0 14.255-14.593 20.424-23.852 9.962-12.63 14.755-29.143 14.755-45.186 0-18.006-5.252-35.031-15.714-48.642-2.376-2.432-11.421-13.142-19.965-21.889-49.851-54.445-179.98-144.391-248.421-171.657-9.962-4.395-36.555-13.569-50.351-14.081-13.296 0-26.134 2.901-38.472 9.259-15.172 8.747-27.051 22.316-33.72 38.402-4.293 11.179-10.921 44.717-10.921 45.698-4.293 23.937-7.503 57.56-9.087 96.816-0.292 7.040 3.251 13.867 9.128 17.494z" />
<glyph unicode="&#xe924;" d="M327.352 496.63c-12.88-7.979-29.094 2.219-28.468 17.537 1.542 35.927 4.21 67.587 7.461 91.141 0.5 0.512 7.128 42.285 14.755 56.408 13.296 26.241 39.389 42.285 67.44 42.285h2.334c18.090-0.469 56.562-16.513 56.562-17.494 19.382-8.064 44.682-21.718 71.9-38.146 12.254-7.424 12.546-25.644 0.292-33.196l-192.276-118.534z" />
<glyph unicode="&#xe925;" d="M158.332 476.127h361.728c16.734 0 30.316-13.581 30.316-30.316s-13.581-30.316-30.316-30.316h-361.728c-16.734 0-30.316 13.581-30.316 30.316s13.581 30.316 30.316 30.316z" />
<glyph unicode="&#xe926;" d="M520.068 678.268c5.659 0 11.237-1.576 16.168-4.648l320.781-202.146c8.812-5.578 14.188-15.239 14.188-25.667s-5.376-20.089-14.188-25.667l-320.781-202.146c-9.337-5.861-21.14-6.225-30.801-0.849-9.701 5.336-15.683 15.481-15.683 26.516v404.291c0 11.035 5.982 21.181 15.683 26.516 4.568 2.547 9.62 3.8 14.632 3.8z" />
<glyph unicode="&#xe927;" d="M511.996 874.675c235.307 0 426.667-191.403 426.667-426.667s-191.36-426.667-426.667-426.667c-235.264 0-426.667 191.403-426.667 426.667s191.403 426.667 426.667 426.667z" />
<glyph unicode="&#xe928;" d="M450.453 628.092c8.149 0 16.341-3.115 22.571-9.344l148.779-148.053c6.016-6.016 9.387-14.165 9.387-22.699 0-8.491-3.371-16.64-9.387-22.656l-148.779-148.139c-12.501-12.459-32.725-12.459-45.227 0.085-12.459 12.544-12.416 32.811 0.085 45.269l125.995 125.44-125.995 125.44c-12.501 12.459-12.544 32.683-0.085 45.227 6.229 6.315 14.464 9.429 22.656 9.429z" />
<glyph unicode="&#xe929;" d="M337.745 21.329h348.501c150.997 0 252.416 97.109 252.416 241.707v369.92c0 144.597-101.419 241.707-252.416 241.707h-348.501c-150.955 0-252.416-97.152-252.416-241.749v-369.877c0-144.597 101.461-241.707 252.416-241.707z" />
<glyph unicode="&#xe92a;" d="M548.497 265.412l160.64 159.915c12.075 12.032 12.075 33.323 0 45.397l-160.64 159.915c-12.544 12.459-32.811 12.416-45.269-0.128s-12.459-32.768 0.085-45.269l105.685-105.259h-271.147c-17.707 0-32-14.336-32-32s14.293-32 32-32h271.147l-105.685-105.216c-6.272-6.272-9.387-14.464-9.387-22.699 0-8.149 3.115-16.341 9.301-22.571 12.459-12.501 32.725-12.544 45.269-0.085z" />
<glyph unicode="&#xe92b;" d="M349.973 397.214l-157.834-13.959c-35.421 0-64.139 28.998-64.139 64.764s28.718 64.764 64.139 64.764l157.834-13.959c27.787 0 50.315-22.747 50.315-50.805 0-28.105-22.528-50.805-50.315-50.805z" />
<glyph unicode="&#xe92c;" d="M879.989 399.78c-2.467-2.491-11.683-13.019-20.34-21.76-50.501-54.753-182.363-144.285-251.342-171.685-10.473-4.371-36.957-13.677-51.153-14.334-13.545 0-26.484 3.149-38.818 9.353-15.406 8.695-27.694 22.418-34.49 38.586-4.329 11.186-11.124 44.789-11.124 45.4-6.749 36.706-10.426 96.394-10.426 162.379 0 62.79 3.677 120.034 9.216 157.35 0.605 0.658 7.401 42.346 14.801 56.633 13.545 26.131 40.029 42.299 68.374 42.299h2.467c18.478-0.611 57.297-16.825 57.297-17.389 65.302-27.4 194.046-112.608 245.804-169.241 0 0 14.615-14.569 20.945-23.64 9.868-13.066 14.801-29.233 14.801-45.4 0-18.047-5.539-34.826-16.011-48.549z" />
<glyph unicode="&#xe92d;" d="M560.331 243.812l-180.020 292.186c-4.011 6.544-3.627 14.922 1.109 21.049 21.377 27.76 43.053 52.56 61.272 69.108 0 0 14.593 14.255 23.852 20.424 12.63 9.962 29.143 14.755 45.186 14.755 18.006 0 35.031-5.252 48.642-15.714 2.432-2.376 13.142-11.421 21.889-19.965 54.445-49.851 144.391-179.98 171.657-248.421 4.395-9.962 13.569-36.555 14.081-50.351 0-13.296-2.901-26.134-9.259-38.472-8.747-15.172-22.316-27.051-38.402-33.72-11.179-4.293-44.717-10.921-45.698-10.921-23.937-4.293-57.56-7.503-96.816-9.087-7.040-0.292-13.867 3.251-17.494 9.128z" />
<glyph unicode="&#xe92e;" d="M463.37 263.352c7.979-12.88-2.219-29.094-17.537-28.468-35.927 1.542-67.587 4.21-91.141 7.461-0.512 0.5-42.285 7.128-56.408 14.755-26.241 13.296-42.285 39.389-42.285 67.44v2.334c0.469 18.090 16.513 56.562 17.494 56.562 8.064 19.382 21.718 44.682 38.146 71.9 7.424 12.254 25.644 12.546 33.196 0.292l118.534-192.276z" />
<glyph unicode="&#xe92f;" d="M483.873 94.332v361.728c0 16.734 13.581 30.316 30.316 30.316s30.316-13.581 30.316-30.316v-361.728c0-16.734-13.581-30.316-30.316-30.316s-30.316 13.581-30.316 30.316z" />
<glyph unicode="&#xe930;" d="M281.732 456.068c0 5.659 1.576 11.237 4.648 16.168l202.146 320.781c5.578 8.812 15.239 14.188 25.667 14.188s20.089-5.376 25.667-14.188l202.146-320.781c5.861-9.337 6.225-21.14 0.849-30.801-5.336-9.701-15.481-15.683-26.516-15.683h-404.291c-11.035 0-21.181 5.982-26.516 15.683-2.547 4.568-3.8 9.62-3.8 14.632z" />
<glyph unicode="&#xe931;" d="M85.325 447.996c0 235.307 191.403 426.667 426.667 426.667s426.667-191.36 426.667-426.667c0-235.264-191.403-426.667-426.667-426.667s-426.667 191.403-426.667 426.667z" />
<glyph unicode="&#xe932;" d="M331.908 386.453c0 8.149 3.115 16.341 9.344 22.571l148.053 148.779c6.016 6.016 14.165 9.387 22.699 9.387 8.491 0 16.64-3.371 22.656-9.387l148.139-148.779c12.459-12.501 12.459-32.725-0.085-45.227-12.544-12.459-32.811-12.416-45.269 0.085l-125.44 125.995-125.44-125.995c-12.459-12.501-32.683-12.544-45.227-0.085-6.315 6.229-9.429 14.464-9.429 22.656z" />
<glyph unicode="&#xe933;" d="M938.671 273.745v348.501c0 150.997-97.109 252.416-241.707 252.416h-369.92c-144.597 0-241.707-101.419-241.707-252.416v-348.501c0-150.955 97.152-252.416 241.749-252.416h369.877c144.597 0 241.707 101.461 241.707 252.416z" />
<glyph unicode="&#xe934;" d="M694.588 484.497l-159.915 160.64c-12.032 12.075-33.323 12.075-45.397 0l-159.915-160.64c-12.459-12.544-12.416-32.811 0.128-45.269s32.768-12.459 45.269 0.085l105.259 105.685v-271.147c0-17.707 14.336-32 32-32s32 14.293 32 32v271.147l105.216-105.685c6.272-6.272 14.464-9.387 22.699-9.387 8.149 0 16.341 3.115 22.571 9.301 12.501 12.459 12.544 32.725 0.085 45.269z" />
<glyph unicode="&#xe935;" d="M562.786 285.973l13.959-157.834c0-35.421-28.998-64.139-64.764-64.139s-64.764 28.718-64.764 64.139l13.959 157.834c0 27.787 22.747 50.315 50.805 50.315 28.105 0 50.805-22.528 50.805-50.315z" />
<glyph unicode="&#xe936;" d="M560.22 815.989c2.491-2.467 13.019-11.683 21.76-20.34 54.753-50.501 144.285-182.363 171.685-251.342 4.371-10.473 13.677-36.957 14.334-51.153 0-13.545-3.149-26.484-9.353-38.818-8.695-15.406-22.418-27.694-38.586-34.49-11.186-4.329-44.789-11.124-45.4-11.124-36.706-6.749-96.394-10.426-162.379-10.426-62.79 0-120.034 3.677-157.35 9.216-0.658 0.605-42.346 7.401-56.633 14.801-26.131 13.545-42.299 40.029-42.299 68.374v2.467c0.611 18.478 16.825 57.297 17.389 57.297 27.4 65.302 112.608 194.046 169.241 245.804 0 0 14.569 14.615 23.64 20.945 13.066 9.868 29.233 14.801 45.4 14.801 18.047 0 34.826-5.539 48.549-16.011z" />
<glyph unicode="&#xe937;" d="M709.133 21.333h-394.266c-114.793 0-208.2 92.542-208.2 206.312v227.376c0 113.77 93.407 206.312 208.2 206.312h394.266c114.793 0 208.2-92.542 208.2-206.312v-227.376c0-113.77-93.407-206.312-208.2-206.312z" />
<glyph unicode="&#xe938;" d="M672.219 533.333c-17.543 0-31.781 13.81-31.781 30.825v124.614c0 68.513-57.46 124.245-128.056 124.245-32.501 0-66.613-12.659-90.894-35.962-24.323-23.386-37.798-54.498-37.925-87.707v-125.19c0-17.015-14.238-30.825-31.781-30.825s-31.781 13.81-31.781 30.825v124.614c0.212 50.512 20.382 97.119 56.74 132.012 36.315 34.976 83.266 52.525 135.769 53.882 105.513 0 191.492-83.391 191.492-185.894v-124.614c0-17.015-14.238-30.825-31.781-30.825z" />
<glyph unicode="&#xe939;" d="M729.022 661.333c53.923 0 110.485-38.811 130.471-133.123v0l32.806-264.306c24.133-172.323-72.777-242.571-202.871-242.571v0h-353.704c-130.471 0-230.398 48.514-203.248 242.571v0l33.183 264.306c16.969 97.029 75.417 133.123 130.094 133.123v0zM388.139 519.284c-20.826 0-37.708-17.376-37.708-38.811s16.883-38.811 37.708-38.811c20.826 0 37.708 17.376 37.708 38.811v0l-0.294 4.868c-2.327 19.137-18.191 33.943-37.415 33.943zM635.128 519.284c-20.826 0-37.708-17.376-37.708-38.811s16.883-38.811 37.708-38.811c20.826 0 37.708 17.376 37.708 38.811s-16.883 38.811-37.708 38.811z" />
<glyph unicode="&#xe93a;" d="M724.218 670.962c0.134-3.309-0.502-6.605-1.858-9.629h-61.317c-1.187 3.074-1.817 6.335-1.858 9.629 0 81.813-66.551 148.136-148.647 148.136s-148.647-66.323-148.647-148.136c0.563-3.185 0.563-6.444 0-9.629h-62.803c-0.563 3.185-0.563 6.444 0 9.629 4.772 113.852 98.778 203.704 213.122 203.704s208.351-89.852 213.122-203.704h-1.115z" />
<glyph unicode="&#xe93b;" d="M511.624 165.482l-276.981-138.35c-20.917-11.354-47.009-3.774-58.708 17.057-3.417 6.549-5.224 13.828-5.269 21.226v309.676c0-30.702 17.311-49.654 62.847-70.881l278.11-138.729z" />
<glyph unicode="&#xe93c;" d="M642.964 874.667c115.534 0 209.241-45.485 210.37-161.85v0-647.401c-0.046-7.277-1.855-14.433-5.269-20.847-5.486-10.462-14.958-18.229-26.242-21.517s-23.411-1.815-33.595 4.081v0l-554.714 277.079c-45.536 21.226-62.847 40.178-62.847 70.881v0 337.725c0 116.365 93.707 161.85 208.864 161.85v0zM671.941 616.919h-321.011c-18.498 0-33.494-15.104-33.494-33.735s14.996-33.735 33.494-33.735v0h321.011c18.498 0 33.494 15.104 33.494 33.735s-14.996 33.735-33.494 33.735v0z" />
<glyph unicode="&#xe93d;" d="M317.039 146.411c35.413 0 64.427-29.013 64.427-64.853 0-35.413-29.013-64.427-64.427-64.427-35.84 0-64.853 29.013-64.853 64.427 0 35.84 29.013 64.853 64.853 64.853zM797.039 146.411c35.413 0 64.427-29.013 64.427-64.853 0-35.413-29.013-64.427-64.427-64.427-35.84 0-64.853 29.013-64.853 64.427 0 35.84 29.013 64.853 64.853 64.853z" />
<glyph unicode="&#xe93e;" d="M118.566 853.343l4.348-0.351 101.76-15.36c14.507-2.603 25.173-14.507 26.453-29.013v0l8.107-95.573c1.28-13.696 12.373-23.936 26.027-23.936v0h576.213c26.027 0 43.093-8.96 60.16-28.587s20.053-47.787 16.213-73.344v0l-40.533-279.893c-7.68-53.803-53.76-93.44-107.947-93.44v0h-465.493c-56.747 0-103.68 43.52-108.373 99.797v0l-39.253 465.109-64.427 11.093c-17.067 2.987-29.013 19.627-26.027 36.693 2.987 17.493 19.627 29.013 37.12 26.453zM721.101 531.285h-118.187c-17.92 0-32-14.080-32-32 0-17.493 14.080-32 32-32v0h118.187c17.92 0 32 14.507 32 32 0 17.92-14.080 32-32 32v0z" />
<glyph unicode="&#xe93f;" d="M684.821 188.16c-19.39 0.427-34.986 16.64-34.986 36.267-0.422 19.627 15.175 35.797 34.564 36.224h0.422c19.811 0 35.829-16.213 35.829-36.224 0-20.053-16.018-36.267-35.829-36.267v0zM512.843 345.173c-19.39-0.896-35.407 14.507-36.25 34.091 0 19.627 15.175 35.84 34.564 36.736 18.968 0 34.564-14.976 34.986-34.133 0.843-19.669-14.332-35.883-33.3-36.693v0zM512.843 190.293c-19.39-0.896-35.407 14.507-36.25 34.133 0 19.627 15.175 35.797 34.564 36.693 18.968 0 34.564-14.976 34.986-34.176 0.843-19.627-14.332-35.84-33.3-36.651v0zM339.6 345.173c-19.39-0.896-35.407 14.507-36.25 34.091 0 19.627 15.175 35.84 34.564 36.736 18.968 0 34.564-14.976 34.986-34.133 0.843-19.669-14.332-35.883-33.3-36.693v0zM339.179 190.293c-19.39-0.896-35.407 14.507-36.25 34.133 0 19.627 15.175 35.797 34.564 36.693 18.968 0 34.564-14.976 34.986-34.176 0.843-19.627-14.332-35.84-33.3-36.651v0zM650.257 379.691c0 19.627 15.175 35.413 34.564 35.84 18.968 0 34.143-15.317 34.986-34.133 0.422-19.627-14.753-35.84-33.721-36.224-19.39-0.427-35.407 14.507-35.829 34.091v0.427zM128 565.035v-324.821c0-134.827 85.146-218.88 218.766-218.88h330.046c134.885 0 219.188 82.347 219.188 216.277v327.424h-768z" />
<glyph unicode="&#xe940;" d="M128.143 565.039c0.548 25.045 2.656 74.752 6.618 90.752 20.233 89.984 88.94 147.157 187.153 155.307h380.206c97.37-8.576 166.92-66.133 187.153-155.307 3.92-15.573 6.028-65.664 6.576-90.752h-767.705z" />
<glyph unicode="&#xe941;" d="M354.341 678.827c18.547 0 32.457 14.037 32.457 32.853v130.091c0 18.816-13.91 32.896-32.457 32.896s-32.457-14.080-32.457-32.896v-130.091c0-18.816 13.91-32.853 32.457-32.853z" />
<glyph unicode="&#xe942;" d="M669.651 678.827c18.125 0 32.457 14.037 32.457 32.853v130.091c0 18.816-14.332 32.896-32.457 32.896-18.547 0-32.457-14.080-32.457-32.896v-130.091c0-18.816 13.91-32.853 32.457-32.853z" />
<glyph unicode="&#xe943;" d="M760.175 338.31c-28.039 5.966-50.22-7.004-69.86-18.33-20.114-11.673-58.36-42.583-80.283-34.629-112.241 45.999-217.807 143.919-263.504 256.149-8.054 22.351 22.827 60.698 34.456 80.93 11.284 19.627 24.033 41.978 18.219 70.079-5.255 25.291-73.22 111.452-97.253 135.013-15.85 15.563-32.087 24.123-48.756 25.55-62.624 2.637-132.657-80.671-144.932-100.601-30.752-42.497-30.537-99.044 0.517-167.567 74.942-184.211 358.388-462.149 543.936-539.621 34.241-15.953 65.553-23.95 93.678-23.95 27.522 0 52.029 7.652 73.090 22.826 15.893 9.122 102.938 82.314 100.655 146.427-1.378 16.342-9.906 32.683-25.368 48.506-23.473 24.167-109.399 93.9-134.595 99.217z" />
<glyph unicode="&#xe944;" d="M825.056 707.51l102.551 102.935c7.15 7.176 11.069 16.688 11.069 26.761s-3.919 19.584-11.069 26.761c-14.256 14.267-39.022 14.267-53.278 0l-102.551-102.978-102.594 102.978c-14.256 14.267-39.022 14.267-53.278 0-7.107-7.176-11.026-16.688-11.026-26.761s3.919-19.584 11.026-26.761l102.551-102.935-102.551-102.935c-7.107-7.176-11.026-16.688-11.026-26.761s3.919-19.584 11.026-26.761c14.256-14.267 39.022-14.267 53.278 0l102.594 102.978 102.551-102.978c7.15-7.133 16.582-11.067 26.661-11.067s19.511 3.934 26.617 11.067c7.15 7.176 11.069 16.688 11.069 26.761s-3.919 19.584-11.069 26.761l-102.551 102.935z" />
<glyph unicode="&#xe945;" d="M419.293 499.14l-114.607-117.522c-74.431 84.564-135.752 172.164-164.932 245.452-30.449 68.519-30.872 125.328-0.423 167.827 11.841 19.948 80.775 103.645 142.095 101.043 16.493-1.301 32.564-9.974 47.788-25.586 23.683-23.851 90.501-110.15 95.576-135.302 5.921-28.622-6.766-50.738-17.762-70.687-11.418-19.948-41.867-58.544-33.832-81.095 11.841-29.055 27.489-57.243 46.096-84.13z" />
<glyph unicode="&#xe946;" d="M936.504 231.575c2.115-64.616-83.312-137.904-98.959-147.011-20.722-15.178-44.828-22.984-71.894-22.984-27.489 0-58.361 7.806-91.77 23.851-79.083 33.826-176.774 105.813-267.698 191.245l113.761 116.612c35.101-27.711 73.162-50.695 112.069-66.784 21.568-8.196 58.784 23.027 78.66 34.736 19.454 11.275 41.022 24.285 68.51 18.214 24.951-5.204 109.109-75.023 132.369-99.309 15.225-16.045 23.26-32.525 24.951-48.57z" />
<glyph unicode="&#xe947;" d="M911.993 795.335v-0.434l-765.032-784.060c-7.189-6.939-16.070-10.842-25.374-10.842s-18.185 3.903-25.797 10.842c-11.841 12.576-13.533 31.224-5.498 45.101l1.269 1.735c0.846 1.344 1.692 2.602 2.96 3.903l766.301 786.229c6.344 6.939 15.647 11.319 25.374 11.319s19.031-4.38 25.797-11.319c13.956-14.744 13.956-37.729 0-52.473z" />
<glyph unicode="&#xe948;" glyph-name="Call" data-tags="Call" d="M775.118 346.487c-28.659 6.165-51.332-7.141-71.406-18.761-20.559-11.975-59.652-43.688-82.060-35.571-114.726 47.236-222.627 147.652-269.336 262.838-8.232 22.886 23.333 62.228 35.219 83.029 11.534 20.136 24.565 43.023 18.622 71.897-5.371 25.947-74.84 114.343-99.405 138.515-16.201 15.967-32.798 24.749-49.835 26.168-64.054 2.75-135.593-82.719-148.139-103.166-31.433-43.599-31.257-101.613 0.528-171.958 76.601-188.945 366.32-474.092 555.974-553.573 34.999-16.366 67.004-24.572 95.751-24.572 28.131 0 53.181 7.851 74.708 23.419 16.245 9.359 105.216 84.449 102.883 150.225-1.409 16.766-10.169 33.531-25.93 49.764-23.993 24.793-111.82 96.335-137.574 101.746z" />
<glyph unicode="&#xe949;" d="M615.181 725.763c-20.311 3.752-38.965-9.21-42.832-29.036s9.136-39.184 28.894-43.064c59.489-11.597 105.422-57.646 117.065-117.338v-0.043c3.314-17.183 18.441-29.676 35.863-29.676 2.337 0 4.674 0.213 7.054 0.64 19.759 3.965 32.761 23.28 28.894 43.149-17.379 89.155-86.003 158.014-174.939 175.368z" />
<glyph unicode="&#xe94a;" d="M612.525 874.328c-9.518 1.364-19.079-1.45-26.685-7.504-7.818-6.14-12.705-15.008-13.767-24.943-2.252-20.082 12.238-38.246 32.294-40.506 138.311-15.435 245.815-123.179 261.367-261.921 2.082-18.59 17.677-32.618 36.288-32.618 1.402 0 2.762 0.085 4.164 0.256 9.731 1.066 18.399 5.884 24.518 13.559 6.076 7.675 8.838 17.226 7.734 26.989-19.376 173.108-153.353 307.458-325.912 326.688z" />
<glyph unicode="&#xe94b;" d="M751.142 333.951c-27.662 5.884-49.545-6.907-68.922-18.078-19.844-11.512-57.619-41.998-79.205-34.153-110.734 45.366-214.881 141.94-259.965 252.627-7.946 22.044 22.521 59.863 33.951 79.817 11.175 19.357 23.753 41.401 18.017 69.115-5.184 24.943-72.236 109.919-95.946 133.157-15.679 15.349-31.656 23.792-48.101 25.199-61.826 2.601-130.875-79.561-142.985-99.217-30.382-41.913-30.169-97.682 0.51-165.305 73.936-181.635 353.574-455.751 536.629-532.157 33.738-15.733 64.673-23.621 92.42-23.621 27.152 0 51.33 7.547 72.109 22.513 15.637 8.996 101.555 81.182 99.261 144.413-1.317 16.117-9.773 32.234-24.985 47.839-23.201 23.834-107.929 92.608-132.787 97.853z" />
<glyph unicode="&#xe94c;" d="M512 558.81c44.8 0 87.040-17.474 118.613-49.012 31.573-31.964 49.067-74.158 49.067-118.482-0.427-46.455-19.2-88.222-49.493-118.482s-72.107-49.012-118.187-49.012c-44.8 0-86.613 17.474-118.613 49.012-31.573 31.964-49.067 73.731-49.067 118.482-0.427 44.324 17.067 86.091 48.64 118.055 32 31.964 74.24 49.438 119.040 49.438zM512 494.881c-27.733 0-53.76-10.655-73.813-30.686-19.627-19.605-30.293-45.603-29.867-72.453v-0.426c0-27.703 10.667-53.7 30.293-73.305s45.653-30.26 73.387-30.26c57.173 0 103.253 46.455 103.68 103.565 0 27.703-10.667 53.7-30.293 73.305s-45.653 30.26-73.387 30.26zM751.36 569.039c21.333 0 38.827-17.474 38.827-38.784s-17.493-38.357-38.827-38.357c-21.333 0-38.4 17.048-38.4 38.357s17.067 38.784 38.4 38.784z" />
<glyph unicode="&#xe94d;" d="M744.107 693.913l-4.267 9.376c-11.52 24.293-24.747 52.422-32.853 68.617-19.627 38.357-53.333 59.667-94.72 60.093h-200.96c-41.387-0.426-74.667-21.736-94.293-60.093-8.533-17.048-23.040-47.734-34.987-72.879l-2.56-5.114c-1.28-3.41-4.693-5.114-8.107-5.114-102.827 0-186.027-83.534-186.027-185.82v-253.159c0-102.286 83.2-185.82 186.027-185.82h481.28c102.4 0 186.027 83.534 186.027 185.82v253.159c0 102.286-83.627 185.82-186.027 185.82-3.84 0-6.827 2.131-8.533 5.114z" />
<glyph unicode="&#xe94e;" d="M685.888 874.667h144.468c59.83 0 108.31-48.89 108.31-109.225v-145.688c0-60.335-48.48-109.225-108.31-109.225h-144.468c-59.83 0-108.31 48.89-108.31 109.225v145.688c0 60.335 48.48 109.225 108.31 109.225z" />
<glyph unicode="&#xe94f;" d="M338.112 385.471c59.83 0 108.31-48.89 108.31-109.225v-145.688c0-60.295-48.48-109.225-108.31-109.225h-144.468c-59.83 0-108.31 48.931-108.31 109.225v145.688c0 60.335 48.48 109.225 108.31 109.225h144.468zM830.356 385.471c59.83 0 108.31-48.89 108.31-109.225v-145.688c0-60.295-48.48-109.225-108.31-109.225h-144.468c-59.83 0-108.31 48.931-108.31 109.225v145.688c0 60.335 48.48 109.225 108.31 109.225h144.468zM338.112 874.667c59.83 0 108.31-48.89 108.31-109.225v-145.688c0-60.335-48.48-109.225-108.31-109.225h-144.468c-59.83 0-108.31 48.89-108.31 109.225v145.688c0 60.335 48.48 109.225 108.31 109.225h144.468z" />
<glyph unicode="&#xe950;" d="M711.49 874.667h-398.601c-145.256 0-227.556-82.299-227.556-227.556v-398.222c0-145.256 82.299-227.556 227.556-227.556h398.601c145.256 0 227.176 82.299 227.176 227.556v398.222c0 145.256-81.92 227.556-227.176 227.556z" />
<glyph unicode="&#xe951;" d="M314.398 560.257c-19.342 0-35.271-15.929-35.271-35.65v-293.167c0-19.342 15.929-35.271 35.271-35.271 19.721 0 35.65 15.929 35.65 35.271v293.167c0 19.721-15.929 35.65-35.65 35.65z" />
<glyph unicode="&#xe952;" d="M513.509 700.204c-19.342 0-35.271-15.929-35.271-35.65v-433.114c0-19.342 15.929-35.271 35.271-35.271 19.721 0 35.65 15.929 35.65 35.271v433.114c0 19.721-15.929 35.65-35.65 35.65z" />
<glyph unicode="&#xe953;" d="M709.97 405.519c-19.721 0-35.65-15.929-35.65-35.65v-138.43c0-19.342 15.929-35.271 35.271-35.271 19.721 0 35.65 15.929 35.65 35.271v138.43c0 19.721-15.929 35.65-35.271 35.65z" />
<glyph unicode="&#xe954;" d="M512.853 874.667c-247.893 0-427.52-202.24-427.52-426.667 0-71.68 20.907-145.493 57.6-212.907 6.827-11.093 7.68-25.173 2.987-38.4l-28.587-95.573c-6.4-23.040 13.227-40.107 34.987-33.28l86.187 25.6c23.467 7.68 41.813-2.133 63.616-15.36 62.293-36.693 139.904-55.467 209.877-55.467 211.627 0 426.667 163.413 426.667 426.667 0 226.987-183.467 425.387-425.813 425.387z" />
<glyph unicode="&#xe955;" d="M314.458 502.182c30.293 0 54.613-24.32 54.613-54.613 0-29.867-24.32-54.187-54.613-54.613-29.867 0-54.613 24.747-54.613 54.613 0 30.293 24.32 54.613 54.613 54.613zM511.168 502.182c30.293 0 54.613-24.32 54.613-54.613 0-29.867-24.32-54.613-54.613-54.613-30.293 0.427-54.613 24.747-54.613 55.040 0 29.867 24.747 54.613 54.613 54.187zM707.853 502.182c30.293 0 54.613-24.32 54.613-54.613 0-29.867-24.32-54.613-54.613-54.613s-54.613 24.747-54.613 54.613c0 30.293 24.32 54.613 54.613 54.613z" />
<glyph unicode="&#xe956;" d="M697.169 874.675h-369.92c-144.64 0-241.92-101.547-241.92-252.587v-348.587c0-150.613 97.28-252.16 241.92-252.16h369.92c144.64 0 241.493 101.547 241.493 252.16v348.587c0 151.040-96.853 252.587-241.493 252.587z" />
<glyph unicode="&#xe957;" d="M640.666 372.467l-75.904 75.861 75.861 75.861c14.592 14.549 14.592 38.229 0 52.779-14.592 14.677-38.187 14.635-52.779 0.043l-75.904-75.861-75.904 75.947c-14.592 14.592-38.229 14.507-52.821 0-14.549-14.592-14.549-38.272 0-52.821l75.947-75.947-75.776-75.733c-14.592-14.592-14.592-38.272 0-52.779 7.296-7.339 16.811-10.965 26.368-10.965 9.6 0 19.115 3.627 26.411 10.923l75.776 75.776 75.947-75.904c7.296-7.296 16.811-10.923 26.368-10.923s19.115 3.669 26.411 10.923c14.592 14.592 14.592 38.229 0 52.821z" />
<glyph unicode="&#xe958;" d="M201.502 56.862c-0.555 0-1.067 0-1.664 0.043-13.44 0.683-26.624 3.584-39.168 8.661-61.739 25.088-91.52 95.616-66.475 157.312l312.363 547.243c10.752 19.456 27.051 35.755 46.933 46.763 58.24 32.256 131.883 11.051 164.096-47.147l310.315-543.061c6.912-16.256 9.856-29.483 10.581-42.965 1.664-32.256-9.344-63.189-30.933-87.125s-51.243-38.059-83.456-39.68l-622.592-0.043z" />
<glyph unicode="&#xe959;" d="M511.979 303.364c20.565 0 37.333-16.64 37.333-37.077 0-21.035-16.768-37.803-37.333-37.803s-37.333 16.768-37.333 37.333c0 20.693 16.768 37.547 37.333 37.547zM511.979 569.779c20.565 0 37.333-16.768 37.333-37.333v0-120.661c0-20.608-16.768-37.333-37.333-37.333s-37.333 16.725-37.333 37.333v0 120.661c0 20.565 16.768 37.333 37.333 37.333z" />
<glyph unicode="&#xe95a;" d="M838.114 555.16c0-2.901-22.74-290.507-35.728-411.548-8.133-74.28-56.019-119.334-127.848-120.614-55.189-1.237-109.216-1.664-162.372-1.664-56.434 0-111.623 0.427-165.194 1.664-69.422 1.664-117.349 47.614-125.068 120.614-13.362 121.468-35.686 408.647-36.101 411.548-0.415 8.746 2.407 17.066 8.133 23.807 5.643 6.229 13.777 9.984 22.325 9.984h591.81c8.507 0 16.225-3.755 22.325-9.984 5.685-6.741 8.548-15.061 7.718-23.807z" />
<glyph unicode="&#xe95b;" d="M896 704.987c0 17.535-13.818 31.274-30.416 31.274h-124.404c-25.312 0-47.305 18.005-52.948 43.39l-6.971 31.103c-9.751 37.588-43.404 63.912-81.165 63.912h-176.149c-38.176 0-71.497-26.324-81.622-65.96l-6.515-29.098c-5.685-25.343-27.678-43.348-52.948-43.348h-124.404c-16.64 0-30.458-13.738-30.458-31.274v-16.213c0-17.109 13.818-31.274 30.458-31.274h707.126c16.598 0 30.416 14.165 30.416 31.274v16.213z" />
<glyph unicode="&#xe95c;" d="M511.962 21.41c-32.811 0-65.579 12.459-90.624 37.333l-31.147 31.147c-12.075 12.032-28.245 18.688-45.397 18.731h-43.819c-70.827 0-128.469 57.643-128.469 128.469v43.861c-0.043 17.109-6.699 33.28-18.773 45.44l-30.635 30.592c-50.176 49.877-50.389 131.413-0.469 181.632l31.147 31.189c12.032 12.075 18.688 28.245 18.731 45.397v43.776c0 70.869 57.643 128.512 128.469 128.512h43.861c17.109 0 33.237 6.656 45.397 18.816l30.677 30.592c49.877 50.176 131.371 50.432 181.632 0.469l31.147-31.147c12.117-12.075 28.245-18.731 45.355-18.731h43.861c70.827 0 128.469-57.643 128.469-128.512v-43.819c0.043-17.109 6.699-33.28 18.773-45.44l30.635-30.635c24.277-24.149 37.717-56.32 37.846-90.667 0.085-34.133-13.056-66.261-36.992-90.539-0.427-0.427-0.811-0.896-1.237-1.28l-30.293-30.293c-12.032-12.075-18.688-28.245-18.731-45.397v-43.819c0-70.827-57.643-128.469-128.469-128.469h-43.861c-17.109-0.043-33.28-6.699-45.397-18.773l-30.677-30.635c-25.003-25.173-58.027-37.803-91.008-37.803z" />
<glyph unicode="&#xe95d;" d="M594.85 364.463c10.923 10.923 27.307 14.080 41.131 8.277 4.053-1.365 8.576-4.267 12.331-7.979 6.827-6.827 10.539-16.171 10.539-26.411 0-10.197-3.712-19.584-10.496-26.368-7.637-7.125-16.939-10.965-26.411-10.965-9.984 0-18.944 3.627-26.667 10.795-3.371 3.371-5.931 7.253-8.064 12.032-2.304 5.205-2.603 10.752-2.603 14.507s0.299 9.344 2.603 14.549c2.176 4.821 5.376 8.917 7.637 11.563zM595.349 584.115c14.549 14.507 38.229 14.507 52.779 0 14.549-14.592 14.549-38.229 0-52.821v0l-219.307-219.307c-7.040-7.040-16.384-10.923-26.368-10.923s-19.328 3.883-26.411 10.923c-14.549 14.592-14.549 38.272 0 52.821v0zM388.557 592.175c12.885 5.888 29.995 2.432 40.149-8.235 3.627-3.627 6.4-7.595 8.235-11.733 2.005-4.437 3.029-9.472 3.029-14.549 0-10.155-4.053-19.584-11.477-26.496-7.040-7.040-16.171-10.837-26.283-10.837-9.472 0-18.773 3.883-26.24 10.88-7.083 7.040-11.093 16.683-11.093 26.453 0 9.301 3.925 18.859 10.837 26.24 3.797 3.84 8.32 6.741 12.843 8.277z" />
<glyph unicode="&#xe95e;" d="M938.662 448.004c0-235.648-191.019-426.667-426.667-426.667s-426.667 191.019-426.667 426.667c0 235.605 191.019 426.667 426.667 426.667s426.667-191.061 426.667-426.667z" />
<glyph unicode="&#xe95f;" d="M676.685 588.591l-69.12-218.453c-2.56-8.96-9.813-16.213-18.773-18.816l-217.6-68.224c-14.507-4.736-28.587 9.387-23.893 23.893l68.267 218.88c2.56 8.96 9.813 15.787 18.773 18.773l218.453 68.267c14.933 4.693 28.587-9.387 23.893-24.32z" />
<glyph unicode="&#xe960;" d="M690.816 874.667h-357.589c-129.707 0-205.227-75.947-205.227-206.080v-440.747c0-132.267 75.52-206.507 205.227-206.507h357.589c131.797 0 205.184 74.24 205.184 206.507v440.747c0 130.133-73.387 206.080-205.184 206.080z" />
<glyph unicode="&#xe961;" d="M344.747 288.427h334.507c17.024-1.707 29.867-16.213 29.867-33.707 0-17.024-12.843-31.573-29.867-33.28h-334.507c-12.8-1.707-25.173 4.693-32 15.36-6.827 11.093-6.827 25.173 0 35.84 6.827 11.093 19.2 17.067 32 15.787zM679.253 483.029c18.347 0 33.28-14.976 33.28-33.323s-14.933-33.28-33.28-33.28h-334.507c-18.389 0-33.28 14.933-33.28 33.28s14.891 33.323 33.28 33.323h334.507zM472.277 676.267c18.389 0 33.323-14.933 33.323-33.237 0-18.816-14.933-33.749-33.323-33.749h-127.531c-18.389 0-33.28 14.933-33.28 33.28s14.891 33.28 33.28 33.28v0.427h127.531z" />
<glyph unicode="&#xe962;" d="M748.971 648.696c104.576 0 189.696-87.885 189.696-195.901v-214.712c0-107.752-84.907-195.417-189.269-195.417h-474.283c-104.619 0-189.781 87.841-189.781 195.857v214.712c0 107.752 84.949 195.461 189.355 195.461h474.283z" />
<glyph unicode="&#xe963;" d="M535.305 275.738l124.117 126.631c12.8 13.088 12.8 34.15-0.085 47.194-12.885 13.001-33.664 12.958-46.464-0.087l-67.968-69.339v439.827c0 18.418-14.72 33.369-32.896 33.369-18.133 0-32.811-14.951-32.811-33.369v-439.827l-68.011 69.339c-12.8 13.044-33.579 13.088-46.464 0.087-6.443-6.544-9.685-15.081-9.685-23.662 0-8.494 3.243-17.031 9.6-23.532l124.117-126.631c6.187-6.284 14.549-9.837 23.253-9.837 8.747 0 17.109 3.554 23.296 9.837z" />
<glyph unicode="&#xe964;" d="M711.012 21.773h-398.057c-61.718-3.836-122.328 17.561-167.935 59.246-41.685 45.649-63.082 106.258-59.246 167.933v398.096c-3.836 61.675 17.518 122.284 59.203 167.933 45.649 41.685 106.259 63.082 167.978 59.246h398.057c61.633 3.836 122.2-17.518 167.807-59.203 41.643-45.692 63.082-106.258 59.417-167.976v-398.096c3.793-61.675-17.561-122.284-59.246-167.933-45.649-41.685-106.259-63.082-167.978-59.246z" />
<glyph unicode="&#xe965;" d="M727.661 516.371l-279.585-280.976c-14.54-14.153-33.65-22.062-53.591-22.062h-97.626c-5.401 0-10.386 2.081-14.125 5.828s-5.401 8.741-5.401 14.153l2.493 98.654c0.415 19.564 8.309 37.88 22.018 51.616l198.161 198.556c3.323 3.33 9.139 3.33 12.463 0l69.502-69.224c4.57-4.537 11.217-7.493 18.279-7.493 15.371 0 27.418 12.488 27.418 27.473 0 7.493-2.908 14.153-7.478 19.148-1.246 1.665-67.424 67.559-67.424 67.559-4.154 4.163-4.154 11.239 0 15.402l27.834 28.306c25.757 25.808 67.3 25.808 93.057 0l54.006-54.114c25.341-25.392 25.341-67.018 0-92.826z" />
<glyph unicode="&#xe966;" d="M853.017 151.328h-242.956c-23.704 0-42.983-19.585-42.983-43.664 0-24.125 19.279-43.664 42.983-43.664h242.956c23.704 0 42.983 19.539 42.983 43.664 0 24.079-19.279 43.664-42.983 43.664z" />
<glyph unicode="&#xe967;" d="M439.852 665.434l230.223-186.031c5.554-4.449 6.502-12.613 2.167-18.3l-272.936-355.641c-17.157-21.97-42.442-34.399-69.532-34.858l-148.997-1.836c-7.947-0.091-14.9 5.413-16.706 13.302l-33.863 147.228c-5.87 27.061 0 55.039 17.157 76.595l274.29 357.338c4.425 5.733 12.597 6.742 18.196 2.202z" />
<glyph unicode="&#xe968;" d="M773.145 590.275l-44.383-55.406c-4.47-5.641-12.507-6.559-18.060-2.064-53.955 43.664-192.116 155.713-230.449 186.764-5.599 4.587-6.366 12.751-1.851 18.438l42.803 53.158c38.83 49.993 106.556 54.58 161.188 11.008l62.759-49.993c25.736-20.181 42.893-46.783 48.763-74.761 6.773-30.776-0.452-61.001-20.769-87.144z" />
<glyph unicode="&#xe969;" d="M621.717 379.985l249.818 250.623c15.629 15.714 24.465 37.178 24.465 59.579v73.505c0 46.121-36.593 68.309-81.731 68.309h-604.539c-45.137 0-81.731-22.188-81.731-68.309v-74.825c0-21.208 7.877-41.65 22.089-57.151l229.521-250.41c4.335-4.727 10.378-7.41 16.755-7.453l209.14-0.597c6.043-0.042 11.878 2.343 16.213 6.729z" />
<glyph unicode="&#xe96a;" d="M386.403 376.075v-281.796c0-10.263 5.168-19.931 13.629-25.467 4.835-3.194 10.419-4.812 16.004-4.812 4.209 0 8.419 0.894 12.337 2.683l169.213 78.871c10.586 4.897 17.38 15.672 17.38 27.554v202.968h-228.562z" />
<glyph unicode="&#xe96b;" d="M430.22 279.127h-280.555c-35.508 0-64.331-28.318-64.331-63.203 0-34.839 28.824-63.203 64.331-63.203h280.555c35.508 0 64.331 28.365 64.331 63.203 0 34.885-28.824 63.203-64.331 63.203z" />
<glyph unicode="&#xe96c;" d="M938.667 687.848c0 34.839-28.824 63.157-64.284 63.157h-280.555c-35.508 0-64.331-28.318-64.331-63.157 0-34.885 28.824-63.203 64.331-63.203h280.555c35.461 0 64.284 28.318 64.284 63.203z" />
<glyph unicode="&#xe96d;" d="M378.784 687.848c0-79.645-65.659-144.198-146.725-144.198-81.019 0-146.725 64.554-146.725 144.198 0 79.598 65.706 144.152 146.725 144.152 81.066 0 146.725-64.554 146.725-144.152z" />
<glyph unicode="&#xe96e;" d="M938.667 217.633c0-79.598-65.659-144.152-146.725-144.152-81.019 0-146.725 64.554-146.725 144.152 0 79.645 65.706 144.198 146.725 144.198 81.066 0 146.725-64.554 146.725-144.198z" />
<glyph unicode="&#xe96f;" d="M720.398 741.767h-125.571c-31.282-0.207-60.982 13.709-80.806 37.86l-41.351 57.168c-19.492 24.363-49.191 38.344-80.426 37.86h-88.772c-159.335 0-218.138-93.514-218.138-252.525v-171.883c-0.198-18.903 853.148-18.878 853.202 0v49.975c0.759 159.011-56.526 241.546-218.137 241.546z" />
<glyph unicode="&#xe970;" d="M720.019 741.767c55.671 4.306 110.927-12.454 154.783-46.946 5.051-4.283 9.745-8.968 14.037-14.008 13.65-15.961 24.2-34.321 31.108-54.14 13.593-40.733 19.886-83.539 18.589-126.452v0-224.13c-0.055-18.878-1.449-37.729-4.173-56.411-5.187-32.97-16.786-64.609-34.143-93.135-7.978-13.779-17.665-26.499-28.832-37.86-50.552-46.396-117.682-70.546-186.27-67.012v0h-346.744c-68.698-3.509-135.936 20.631-186.65 67.012-11.034 11.382-20.593 24.102-28.453 37.86-17.254 28.506-28.606 60.175-33.385 93.135-3.038 18.651-4.552 37.516-4.552 56.411v0 224.13c0 18.719 1.006 37.424 3.035 56.033 1.138 8.708 3.794 17.037 3.794 25.366 3.851 22.457 10.876 44.254 20.865 64.74 29.591 63.226 90.29 95.407 189.685 95.407v0zM730.262 367.333h-432.86c-19.485 0-35.281-15.764-35.281-35.21s15.796-35.21 35.281-35.21v0h430.205c9.423-0.409 18.618 2.963 25.532 9.365s10.972 15.3 11.267 24.708c0.533 8.269-2.189 16.42-7.587 22.716-6.209 8.461-16.048 13.511-26.556 13.63v0z" />
<glyph unicode="&#xe971;" d="M567.684 709.016v-7.81c-20.936 0.411-41.871 0.411-62.807 0.411v6.988c0 28.362-23.867 51.38-52.339 51.38h-41.452c-47.314 0-85.836 37.816-85.836 83.853 0 16.853 14.236 30.828 31.403 30.828 17.586 0 31.403-13.975 31.403-30.828 0-12.331 10.468-22.196 23.029-22.196h41.452c63.225-0.411 114.727-50.969 115.146-112.626z" />
<glyph unicode="&#xe972;" d="M504.882 701.609c20.936 0 41.871 0 62.807-0.411 39.778 0 79.555-0.822 119.751-1.233 145.293 0 251.227-103.583 251.227-246.626v0-183.736c0-143.043-105.934-246.626-251.227-246.626-58.201-1.233-116.402-1.644-175.021-1.644s-117.658 0.411-175.859 1.644c-145.293 0-251.227 103.583-251.227 246.626v0 183.736c0 143.043 105.934 246.626 251.645 246.626 54.851 0.822 110.958 1.644 167.903 1.644zM387.643 466.493c-17.586 0-31.403-13.975-31.403-30.828v0-43.16h-44.383c-17.167 0-31.403-13.975-31.403-30.828 0-17.264 14.236-30.828 31.403-30.828v0h44.383v-43.571c0-16.853 13.817-30.828 31.403-30.828 17.167 0 31.403 13.975 31.403 30.828v0 43.571h43.965c17.167 0 31.403 13.564 31.403 30.828 0 16.853-14.236 30.828-31.403 30.828v0h-43.965v43.16c0 16.853-14.236 30.828-31.403 30.828zM716.75 320.573h-4.187c-17.586 0-31.403-13.975-31.403-30.828 0-17.264 13.817-30.828 31.403-30.828v0h4.187c17.167 0 31.403 13.564 31.403 30.828 0 16.853-14.236 30.828-31.403 30.828v0zM645.15 461.971h-4.187c-17.586 0-31.403-13.975-31.403-30.828 0-17.264 13.817-30.828 31.403-30.828v0h4.187c17.167 0 31.403 13.564 31.403 30.828 0 16.853-14.236 30.828-31.403 30.828v0z" />
<glyph unicode="&#xe973;" d="M433.184 722.964c2.173-4.423 3.608-9.16 4.251-14.029l11.88-176.637 5.897-88.782c0.061-9.13 1.493-18.201 4.251-26.921 7.122-16.918 24.256-27.671 42.896-26.921l284.044 18.579c12.3 0.203 24.178-4.398 33.020-12.789 7.369-6.993 12.126-16.14 13.624-25.979l0.503-5.974c-11.754-162.761-131.294-298.516-293.717-333.56s-328.981 38.984-409.244 181.892c-23.139 41.518-37.592 87.153-42.51 134.226-2.055 13.935-2.959 28.010-2.705 42.088-0.254 174.499 124.010 325.358 297.956 361.727 20.935 3.26 41.459-7.823 49.853-26.921z" />
<glyph unicode="&#xe974;" d="M549.121 874.632c194.555-4.95 358.072-144.852 389.546-333.289l-0.301-1.39-0.859-2.022 0.12-5.55c-0.446-7.354-3.285-14.429-8.178-20.144-5.097-5.953-12.060-10.007-19.728-11.581l-4.676-0.642-327.713-21.233c-10.901-1.075-21.754 2.44-29.861 9.671-6.755 6.026-11.074 14.159-12.294 22.924l-21.996 327.237c-0.383 1.107-0.383 2.306 0 3.413 0.301 9.020 4.271 17.546 11.024 23.674s15.727 9.345 24.916 8.935z" />
<glyph unicode="&#xe975;" d="M502.442 28.269c-97.41 60.166-187.961 131.111-269.998 211.535-57.915 57.422-102.145 127.536-129.311 204.985-48.539 151.041 7.963 323.66 165.715 374.906 83.264 26.149 173.821 10.097 243.453-43.155v0c69.657 53.192 160.185 69.239 243.453 43.155 157.752-51.246 214.633-223.865 166.094-374.906-26.945-77.376-70.912-147.483-128.552-204.985-82.111-80.337-172.653-151.273-269.998-211.535l-10.618-6.936-10.239 6.936z" />
<glyph unicode="&#xe976;" d="M512.465 21.333l-10.023 6.936c-97.53 60.161-188.207 131.105-270.377 211.535-58.189 57.343-102.683 127.463-130.069 204.985-48.16 151.041 8.343 323.66 166.094 374.906 83.264 26.149 175.016 10.084 244.375-43.613v-754.749z" />
<glyph unicode="&#xe977;" d="M777.832 533.366v0c-8.571 0.552-16.552 4.835-22.075 11.847s-8.101 16.135-7.132 25.233v0c0.928 29.967-16.124 57.244-42.419 67.857-16.674 4.552-26.771 22.609-22.6 40.417 3.958 17.522 20.365 28.417 36.856 24.473 2.082-0.345 4.087-1.1 5.911-2.225 52.723-20.289 86.859-74.895 84.142-134.601-0.086-9.049-3.614-17.674-9.776-23.896s-14.429-9.508-22.907-9.106z" />
<glyph unicode="&#xe978;" d="M512 794.373h-0.416c-176.078 0-334.673-124.757-423.753-333.945-3.33-7.981-3.33-17.222 0-24.783 28.722-67.587 64.937-126.437 106.563-175.164l154.016 155.421c-1.665 10.081-2.914 21.003-2.914 31.924 0 92.833 74.511 168.023 166.504 168.023 10.823 0 21.646-1.26 31.636-2.94l139.031 140.341c-53.281 26.842-111.141 41.124-170.667 41.124zM936.169 460.427c-38.296 89.892-89.496 164.662-149.854 220.11l-136.95-138.199c17.899-26.884 28.722-59.648 28.722-94.513 0-92.413-74.511-167.603-166.088-167.603-34.55 0-67.018 10.963-93.659 28.984l-131.954-133.158c67.85-48.307 144.859-74.77 225.197-74.77h0.416c176.494 0 335.089 125.177 424.169 334.365 3.33 7.561 3.33 16.802 0 24.783z" />
<glyph unicode="&#xe979;" d="M862.083 801.53c12.488-12.182 12.488-32.344 0-44.526l-258.077-260.452c7.493-14.282 11.655-31.084 11.655-48.727 0-57.548-46.621-104.594-103.649-104.594-17.466 0-34.101 4.192-48.245 11.739l-258.127-260.438c-6.244-6.259-14.153-9.199-22.062-9.199s-16.234 2.94-22.062 9.199c-10.407 10.501-12.072 27.346-3.746 39.527l1.249 1.68 615.649 621.264c0.833 0.84 1.665 1.68 2.081 2.52 0.833 0.84 1.665 1.68 2.081 2.52l39.128 39.485c12.488 12.182 32.052 12.182 44.124 0z" />
<glyph unicode="&#xe97a;" glyph-name="Home" data-tags="Home" d="M390.133 73.297v130.853c-0.001 33.159 26.963 60.098 60.361 60.306h122.631c33.547 0 60.743-27 60.743-60.306v0-130.474c-0.001-28.76 23.371-52.133 52.338-52.343h83.664c39.075-0.099 76.583 15.241 104.249 42.637s43.214 64.595 43.214 103.389v371.698c0 31.337-13.992 61.062-38.203 81.167l-284.23 225.674c-49.684 39.473-120.645 38.198-168.857-3.034 0 0-278.117-222.64-278.117-222.64-25.356-19.512-40.51-49.325-41.259-81.167v-371.319c0-80.856 66.022-146.405 147.463-146.405h81.754c13.947-0.1 27.358 5.33 37.256 15.086s15.465 23.030 15.464 36.877h1.528z" />
<glyph unicode="&#xe97b;" d="M938.662 332.7v-59.031c0-9.796-0.428-19.677-1.283-29.473-11.971-134.787-105.598-222.863-240.695-222.863h-369.379c-68.403 0-126.119 22.201-167.589 62.453-16.246 14.929-29.927 32.467-40.615 52.572 14.108 17.153 29.927 35.932 45.317 54.753 26.079 31.226 51.303 62.068 67.121 82.13 23.514 29.088 85.504 105.657 171.436 69.725 17.528-7.272 32.919-17.538 47.027-26.521 34.629-23.099 49.165-29.943 73.534-16.683 26.934 14.544 44.462 43.204 62.846 73.147 9.833 15.87 19.666 31.226 30.354 45.343 46.6 60.742 118.424 76.997 178.277 41.065 29.927-17.966 55.578-40.637 79.519-63.693 5.13-5.133 10.261-9.881 14.963-14.587 6.413-6.416 27.789-27.804 49.165-48.337z" />
<glyph unicode="&#xe97c;" d="M697.117 874.667h-369.806c-144.93 0-241.977-101.379-241.977-252.335v-348.667c0-52.572 11.971-99.24 33.774-137.311 14.108 17.153 29.927 35.932 45.317 54.796 26.079 31.184 51.303 62.025 67.121 82.087 23.514 29.088 85.504 105.657 171.436 69.725 17.528-7.272 32.919-17.538 47.027-26.521 34.629-23.099 49.165-29.943 73.534-16.64 26.934 14.501 44.462 43.161 62.846 73.147 9.833 15.827 19.666 31.184 30.354 45.3 46.6 60.742 118.424 76.997 178.277 41.065 29.927-17.966 55.578-40.637 79.519-63.693 5.13-5.133 10.261-9.881 14.963-14.587 6.413-6.374 27.789-27.762 49.165-48.337v289.636c0 150.956-97.047 252.335-241.55 252.335z" />
<glyph unicode="&#xe97d;" d="M488.721 584.676c0-60.1-50.063-110.148-110.13-110.148-60.024 0-110.087 50.048-110.087 110.148 0 60.057 50.063 110.148 110.087 110.148 60.067 0 110.13-50.091 110.13-110.148z" />
<glyph unicode="&#xe97e;" d="M696.867 21.333h-369.776c-144.61 0-241.757 101.423-241.757 252.404v348.483c0 150.981 97.148 252.447 241.757 252.447h369.819c144.61 0 241.757-101.466 241.757-252.447v-348.483c0-150.981-97.148-252.404-241.8-252.404z" />
<glyph unicode="&#xe97f;" d="M658.278 401.51c9.472 12.416 44.629 51.243 90.069 23.595 28.971-17.408 53.333-40.96 79.403-66.176 9.941-9.643 17.067-20.651 21.76-32.384 14.208-35.499 6.827-78.165-8.363-113.323-18.005-41.856-52.48-73.472-95.915-87.296-19.285-6.187-39.509-8.832-59.691-8.832v0h-357.589c-35.584 0-67.072 8.277-92.885 23.808-16.171 9.728-19.029 32.128-7.040 46.72 20.053 24.32 39.851 48.725 59.819 73.344 38.059 47.104 63.701 60.757 92.203 48.768 11.563-4.949 23.168-12.416 35.115-20.267 31.829-21.077 76.075-50.005 134.357-18.603 40.107 21.931 63.275 59.563 83.499 92.16 8.277 13.269 16.128 26.496 25.259 38.485zM373.76 695.936c58.453 0 106.027-47.616 106.027-106.069s-47.573-106.027-106.027-106.027c-58.496 0-106.027 47.573-106.027 106.027s47.531 106.069 106.027 106.069z" />
<glyph unicode="&#xe980;" d="M938.662 448.009c0-235.691-191.019-426.667-426.667-426.667s-426.667 190.976-426.667 426.667c0 235.605 191.019 426.667 426.667 426.667s426.667-191.061 426.667-426.667z" />
<glyph unicode="&#xe981;" d="M511.787 323.051c21.035 0 37.76-16.768 37.76-37.333s-16.725-37.333-37.333-37.333c-20.693 0-37.547 16.768-37.547 37.333s16.683 37.333 37.12 37.333zM511.787 647.010c20.565 0 37.333-16.768 37.333-37.333v0-188.587c0-20.565-16.768-37.333-37.333-37.333s-37.333 16.768-37.333 37.333v0 188.587c0 20.565 16.768 37.333 37.333 37.333z" />
<glyph unicode="&#xe982;" d="M697.173 874.675h-369.92c-144.64 0-241.92-101.547-241.92-252.587v-348.587c0-150.613 97.28-252.16 241.92-252.16h369.92c144.64 0 241.493 101.547 241.493 252.16v348.587c0 151.040-96.853 252.587-241.493 252.587z" />
<glyph unicode="&#xe983;" d="M511.774 512.55c20.565 0 37.333-16.768 37.333-37.333v-188.587c0-20.565-16.768-37.333-37.333-37.333s-37.333 16.768-37.333 37.333v188.587c0 20.565 16.768 37.333 37.333 37.333zM512.201 647.923c20.608 0 37.333-16.768 37.333-37.333s-16.725-37.333-37.76-37.333c-20.437 0-37.12 16.768-37.12 37.333s16.853 37.333 37.547 37.333z" />
<glyph unicode="&#xe984;" d="M364.016 834.698c93.221 54.165 207.804 53.218 300.15-2.48 91.438-56.833 147.012-158.263 146.497-267.373-2.132-108.394-61.723-210.285-136.211-289.052-42.993-45.667-91.087-86.047-143.302-120.318-5.378-3.109-11.268-5.191-17.381-6.142-5.883 0.25-11.612 1.989-16.671 5.058-79.715 51.493-149.65 117.223-206.439 194.026-47.52 64.111-74.517 141.566-77.326 221.847v0l0.213 11.679c3.88 104.791 60.579 200.523 150.47 252.754zM550.71 659.85c-37.896 16.108-81.588 7.357-110.675-22.168s-37.831-74-22.151-112.658c15.681-38.658 52.694-63.875 93.757-63.875 26.901-0.193 52.761 10.582 71.817 29.925s29.725 45.646 29.63 73.049c0.143 41.828-24.482 79.619-62.379 95.727z" />
<glyph unicode="&#xe985;" d="M725.333 64c0-23.564-95.513-42.667-213.333-42.667s-213.333 19.103-213.333 42.667c0 23.564 95.513 42.667 213.333 42.667s213.333-19.103 213.333-42.667z" />
<glyph unicode="&#xe986;" d="M692.531 588.21c100.584 0 182.135-79.753 182.135-178.119v0-210.639c0-98.366-81.551-178.119-182.135-178.119v0h-361.063c-100.584 0-182.135 79.753-182.135 178.119v0 210.639c0 98.366 81.551 178.119 182.135 178.119v0zM511.783 388.934c-20.811 0-37.719-16.536-37.719-36.887v0-94.126c0-20.776 16.909-37.311 37.719-37.311 21.244 0 38.153 16.536 38.153 37.311v0 94.126c0 20.352-16.909 36.887-38.153 36.887z" />
<glyph unicode="&#xe987;" d="M747.64 644.439v-62.751c-15.174 4.24-31.216 6.36-47.691 6.36h-28.181v56.391c0 86.070-71.536 156.029-159.547 156.029s-159.547-69.535-159.981-155.181v-57.239h-27.747c-16.909 0-32.95-2.12-48.124-6.784v63.175c0.434 127.197 105.787 230.227 234.985 230.227 130.933 0 236.286-103.030 236.286-230.227z" />
<glyph unicode="&#xe988;" d="M311.304 684.971c0 104.576 87.885 189.696 195.901 189.696h214.712c107.752 0 195.417-84.907 195.417-189.269v-474.283c0-104.619-87.841-189.781-195.857-189.781h-214.712c-107.752 0-195.461 84.949-195.461 189.355v474.283z" />
<glyph unicode="&#xe989;" d="M684.262 471.305l-126.631 124.117c-13.088 12.8-34.15 12.8-47.194-0.085-13.001-12.885-12.958-33.664 0.087-46.464l69.339-67.968h-439.827c-18.418 0-33.369-14.72-33.369-32.896 0-18.133 14.951-32.811 33.369-32.811h439.827l-69.339-68.011c-13.044-12.8-13.088-33.579-0.087-46.464 6.544-6.443 15.081-9.685 23.662-9.685 8.494 0 17.031 3.243 23.532 9.6l126.631 124.117c6.284 6.187 9.837 14.549 9.837 23.253 0 8.747-3.554 17.109-9.837 23.296z" />
<glyph unicode="&#xe98a;" d="M85.333 684.928c0 104.576 86.624 189.739 193.047 189.739h211.674c106.206 0 192.613-84.907 192.613-189.312v-474.283c0-104.619-86.624-189.739-193.090-189.739h-211.587c-106.25 0-192.656 84.907-192.656 189.312v474.283z" />
<glyph unicode="&#xe98b;" d="M929.234 471.262l-121.42 124.117c-12.549 12.8-32.744 12.8-45.252-0.085-12.466-12.885-12.425-33.664 0.083-46.464l66.528-67.968h-421.772c-17.66 0-31.996-14.72-31.996-32.853 0-18.176 14.336-32.853 31.996-32.853h421.772l-66.528-67.968c-12.508-12.8-12.549-33.579-0.083-46.464 6.275-6.443 14.461-9.685 22.688-9.685 8.145 0 16.331 3.243 22.564 9.6l121.42 124.075c6.025 6.187 9.433 14.549 9.433 23.296 0 8.704-3.407 17.067-9.433 23.253z" />
<glyph unicode="&#xe98c;" d="M938.662 279.885c0-119.040-95.573-215.467-214.613-215.893h-423.253c-118.613 0-215.467 96-215.467 215.040v0.427c0 0 0.256 188.843 0.597 283.819 0.043 17.835 20.523 27.819 34.475 16.725 101.376-80.427 282.667-227.072 284.928-228.992 30.293-24.277 68.693-37.973 107.947-37.973s77.653 13.696 107.947 38.443c2.261 1.493 179.499 143.744 282.411 225.493 13.995 11.136 34.56 1.152 34.603-16.64 0.427-94.251 0.427-280.448 0.427-280.448z" />
<glyph unicode="&#xe98d;" d="M916.309 717.926c-36.949 69.632-109.653 114.091-189.696 114.091h-425.813c-80.043 0-152.747-44.459-189.696-114.091-8.277-15.573-4.352-34.987 9.429-45.995l316.8-253.397c22.187-17.92 49.067-26.837 75.947-26.837 0.171 0 0.299 0 0.427 0s0.299 0 0.427 0c26.88 0 53.76 8.917 75.947 26.837l316.8 253.397c13.781 11.008 17.707 30.421 9.429 45.995z" />
<glyph unicode="&#xe98e;" d="M938.675 448.009c0-235.691-191.019-426.667-426.667-426.667s-426.667 190.976-426.667 426.667c0 235.605 191.019 426.667 426.667 426.667s426.667-191.061 426.667-426.667z" />
<glyph unicode="&#xe98f;" d="M320.9 499.051c28.203 0 51.115-22.912 51.115-51.029 0-28.16-22.912-51.115-51.115-51.115s-51.115 22.955-51.115 51.115c0 28.117 22.912 51.029 51.115 51.029zM512.009 499.051c28.203 0 51.115-22.912 51.115-51.029 0-28.16-22.912-51.115-51.115-51.115s-51.115 22.955-51.115 51.115c0 28.117 22.912 51.029 51.115 51.029zM703.13 499.051c28.203 0 51.115-22.912 51.115-51.029 0-28.16-22.912-51.115-51.115-51.115s-51.115 22.955-51.115 51.115c0 28.117 22.912 51.029 51.115 51.029z" />
<glyph unicode="&#xe990;" d="M697.178 874.675h-369.92c-144.64 0-241.92-101.547-241.92-252.587v-348.587c0-150.613 97.28-252.16 241.92-252.16h369.92c144.64 0 241.493 101.547 241.493 252.16v348.587c0 151.040-96.853 252.587-241.493 252.587z" />
<glyph unicode="&#xe991;" d="M320.905 499.051c28.203 0 51.115-22.912 51.115-51.029 0-28.16-22.912-51.115-51.115-51.115s-51.115 22.955-51.115 51.115c0 28.117 22.912 51.029 51.115 51.029zM512.009 499.051c28.203 0 51.115-22.912 51.115-51.029 0-28.16-22.912-51.115-51.115-51.115s-51.115 22.955-51.115 51.115c0 28.117 22.912 51.029 51.115 51.029zM703.134 499.051c28.203 0 51.115-22.912 51.115-51.029 0-28.16-22.912-51.115-51.115-51.115s-51.115 22.955-51.115 51.115c0 28.117 22.912 51.029 51.115 51.029z" />
<glyph unicode="&#xe992;" d="M843.499 463.132c-31.167 36.397-45.331 67.937-45.331 121.522v18.22c0 69.828-16.071 114.819-51.013 159.81-53.854 69.871-144.515 111.983-233.269 111.983h-3.774c-86.887 0-174.708-40.178-229.495-107.213-36.85-45.893-54.787-92.818-54.787-164.579v-18.22c0-53.585-13.23-85.126-45.331-121.522-23.619-26.814-31.167-61.277-31.167-98.576 0-37.342 12.255-72.707 36.85-101.455 32.1-34.463 77.431-56.464 123.737-60.288 67.042-7.649 134.084-10.528 202.101-10.528 67.975 0 135.017 4.813 202.101 10.528 46.264 3.824 91.594 25.826 123.695 60.288 24.552 28.748 36.85 64.113 36.85 101.455 0 37.299-7.548 71.762-31.167 98.576z" />
<glyph unicode="&#xe993;" d="M597.704 139.59c-21.33 4.555-151.3 4.555-172.63 0-18.234-4.211-37.952-14.009-37.952-35.494 1.060-20.497 13.061-38.588 29.683-50.061l-0.042-0.043c21.499-16.759 46.73-27.416 73.148-31.24 14.078-1.934 28.411-1.848 42.998 0 26.376 3.824 51.607 14.481 73.106 31.24l-0.042 0.043c16.623 11.473 28.623 29.564 29.683 50.061 0 21.486-19.718 31.283-37.952 35.494z" />
<glyph unicode="&#xe994;" d="M802.514 575.104c-19.263 0-44.779 0.427-76.547 0.427-77.476 0-141.18 64.128-141.18 142.336v137.216c0 10.795-8.66 19.584-19.348 19.584h-225.626c-105.315 0-190.479-86.443-190.479-192.384v-459.733c0-111.147 89.22-201.216 199.266-201.216h336.011c104.977 0 190.057 85.888 190.057 191.915v342.656c0 10.837-8.618 19.584-19.348 19.541-18.038-0.128-39.667-0.341-52.805-0.341z" />
<glyph unicode="&#xe995;" d="M686.263 850.462c-12.757 13.269-35.029 4.139-35.029-14.251v-112.512c0-47.189 38.827-86.016 86.016-86.016 29.781-0.341 71.083-0.427 106.155-0.341 17.963 0.043 27.093 21.504 14.635 34.475-45.013 46.805-125.611 130.688-171.776 178.645z" />
<glyph unicode="&#xe996;" d="M644.493 417.754c-12.459 12.331-32.512 12.416-44.971-0.085l-67.797-68.139v205.952c0 17.536-14.251 31.787-31.787 31.787s-31.787-14.251-31.787-31.787v-205.952l-67.84 68.139c-12.416 12.501-32.512 12.416-44.928 0.085-12.459-12.373-12.459-32.469-0.128-44.928l122.197-122.709c2.901-2.901 6.357-5.248 10.24-6.869 3.84-1.579 8.021-2.432 12.245-2.432 4.267 0 8.448 0.853 12.288 2.475 3.797 1.579 7.253 3.925 10.155 6.784 0 0 0.085 0.043 0.085 0.043l122.112 122.709c12.373 12.459 12.373 32.555-0.085 44.928z" />
<glyph unicode="&#xe997;" d="M802.514 575.104c-19.263 0-44.779 0.427-76.547 0.427-77.476 0-141.18 64.128-141.18 142.336v137.216c0 10.795-8.66 19.584-19.348 19.584h-225.669c-105.273 0-190.437-86.443-190.437-192.384v-459.733c0-111.147 89.22-201.216 199.266-201.216h336.011c104.977 0 190.057 85.888 190.057 191.915v342.656c0 10.837-8.618 19.584-19.348 19.541-18.038-0.128-39.667-0.341-52.805-0.341z" />
<glyph unicode="&#xe998;" d="M686.251 850.462c-12.715 13.269-35.029 4.139-35.029-14.251v-112.512c0-47.189 38.869-86.016 86.059-86.016 29.739-0.341 71.040-0.427 106.112-0.341 17.963 0.043 27.093 21.504 14.635 34.475-45.013 46.805-125.611 130.688-171.776 178.645z" />
<glyph unicode="&#xe999;" d="M551.893 405.961l52.096 52.139c12.416 12.373 12.416 32.469 0 44.885s-32.512 12.416-44.928 0l-52.096-52.053-52.096 52.053c-12.416 12.416-32.555 12.416-44.971 0s-12.416-32.512 0-44.885l52.139-52.139-52.139-52.096c-12.416-12.416-12.416-32.512 0-44.885 6.229-6.229 14.336-9.344 22.485-9.344s16.256 3.115 22.485 9.344l52.096 52.053 52.096-52.053c6.187-6.229 14.336-9.344 22.485-9.344 8.107 0 16.256 3.115 22.443 9.344 12.416 12.373 12.416 32.469 0 44.885l-52.096 52.096z" />
<glyph unicode="&#xe99a;" d="M802.514 575.104c-19.263 0-44.779 0.427-76.547 0.427-77.476 0-141.18 64.128-141.18 142.336v137.216c0 10.795-8.66 19.584-19.348 19.584h-225.669c-105.273 0-190.437-86.443-190.437-192.384v-459.733c0-111.147 89.22-201.216 199.266-201.216h336.011c104.977 0 190.057 85.888 190.057 191.915v342.656c0 10.837-8.618 19.584-19.348 19.541-18.038-0.128-39.667-0.341-52.805-0.341z" />
<glyph unicode="&#xe99b;" d="M686.246 850.462c-12.715 13.269-35.029 4.139-35.029-14.251v-112.512c0-47.189 38.869-86.016 86.059-86.016 29.739-0.341 71.040-0.427 106.155-0.341 17.92 0.043 27.051 21.504 14.592 34.475-45.013 46.805-125.611 130.688-171.776 178.645z" />
<glyph unicode="&#xe99c;" d="M612.996 338.377h-210.901c-17.536 0-31.787 14.208-31.787 31.744s14.251 31.787 31.787 31.787h210.901c17.536 0 31.787-14.251 31.787-31.787s-14.251-31.744-31.787-31.744z" />
<glyph unicode="&#xe99d;" d="M802.509 575.104c-19.264 0-44.781 0.427-76.551 0.427-77.48 0-141.188 64.128-141.188 142.336v137.216c0 10.795-8.661 19.584-19.307 19.584h-225.682c-105.321 0-190.448-86.443-190.448-192.384v-459.733c0-111.147 89.183-201.216 199.235-201.216h336.030c104.983 0 190.068 85.888 190.068 191.915v342.656c0 10.837-8.618 19.584-19.349 19.541-17.997-0.128-39.67-0.341-52.808-0.341z" />
<glyph unicode="&#xe99e;" d="M686.255 850.462c-12.757 13.269-35.029 4.139-35.029-14.251v-112.512c0-47.189 38.869-86.016 86.016-86.016 29.781-0.341 71.083-0.427 106.155-0.341 17.963 0.043 27.093 21.504 14.635 34.475-45.013 46.805-125.611 130.688-171.776 178.645z" />
<glyph unicode="&#xe99f;" d="M613.005 437.918h-73.728v73.685c0 17.536-14.208 31.787-31.744 31.787s-31.787-14.251-31.787-31.787v-73.685h-73.685c-17.536 0-31.744-14.251-31.744-31.787s14.208-31.787 31.744-31.787h73.685v-73.643c0-17.536 14.251-31.787 31.787-31.787s31.744 14.251 31.744 31.787v73.643h73.728c17.536 0 31.787 14.251 31.787 31.787s-14.251 31.787-31.787 31.787z" />
<glyph unicode="&#xe9a0;" d="M802.509 575.104c-19.264 0-44.781 0.427-76.551 0.427-77.48 0-141.188 64.128-141.188 142.336v137.216c0 10.795-8.661 19.584-19.307 19.584h-225.682c-105.321 0-190.448-86.443-190.448-192.384v-459.733c0-111.147 89.183-201.216 199.235-201.216h336.030c104.983 0 190.068 85.888 190.068 191.915v342.656c0 10.837-8.618 19.584-19.349 19.541-17.997-0.128-39.67-0.341-52.808-0.341z" />
<glyph unicode="&#xe9a1;" d="M686.259 850.462c-12.757 13.269-35.029 4.139-35.029-14.251v-112.512c0-47.189 38.869-86.016 86.016-86.016 29.781-0.341 71.083-0.427 106.155-0.341 17.963 0.043 27.093 21.504 14.635 34.475-45.013 46.805-125.611 130.688-171.776 178.645z" />
<glyph unicode="&#xe9a2;" d="M644.489 410.295c-12.416-12.331-32.512-12.416-44.971 0.085l-67.797 68.139v-205.952c0-17.536-14.251-31.787-31.787-31.787s-31.744 14.251-31.744 31.787v205.952l-67.883-68.139c-12.373-12.501-32.512-12.416-44.928-0.085s-12.459 32.469-0.085 44.928l122.112 122.667c0.043 0.043 0.043 0.043 0.043 0.043 2.901 2.901 6.4 5.248 10.24 6.827 3.84 1.621 8.021 2.475 12.245 2.475 4.267 0 8.448-0.853 12.288-2.475 3.797-1.579 7.253-3.925 10.155-6.784 0.043-0.043 0.085-0.043 0.085-0.085l122.112-122.667c12.373-12.459 12.373-32.597-0.085-44.928z" />
<glyph unicode="&#xe9a3;" d="M802.509 575.104c-19.264 0-44.781 0.427-76.551 0.427-77.48 0-141.188 64.128-141.188 142.336v137.216c0 10.795-8.618 19.584-19.307 19.584h-225.682c-105.321 0-190.448-86.443-190.448-192.384v-459.733c0-111.147 89.183-201.216 199.235-201.216h336.072c104.941 0 190.026 85.888 190.026 191.915v342.656c0 10.837-8.576 19.584-19.307 19.541-18.039-0.128-39.67-0.341-52.851-0.341z" />
<glyph unicode="&#xe9a4;" d="M686.251 850.462c-12.757 13.269-35.029 4.139-35.029-14.251v-112.512c0-47.189 38.869-86.016 86.059-86.016 29.739-0.341 71.040-0.427 106.112-0.341 17.963 0.043 27.093 21.504 14.635 34.475-45.013 46.805-125.611 130.688-171.776 178.645z" />
<glyph unicode="&#xe9a5;" d="M615.168 324.574c17.536 0 31.787-14.251 31.787-31.787s-14.251-31.744-31.787-31.744h-232.277c-17.536 0-31.744 14.208-31.744 31.744s14.208 31.787 31.744 31.787h232.277zM527.313 537.66c17.536 0 31.787-14.251 31.787-31.787s-14.251-31.744-31.787-31.744h-144.427c-17.536 0-31.744 14.208-31.744 31.744s14.208 31.787 31.744 31.787h144.427z" />
<glyph unicode="&#xe9a6;" d="M696.934 874.675h-369.877c-144.597 0-241.707-101.461-241.707-252.459v-348.459c0-150.955 97.109-252.416 241.707-252.416h369.835c144.597 0 241.792 101.461 241.792 252.416v348.459c0 150.997-97.152 252.459-241.749 252.459z" />
<glyph unicode="&#xe9a7;" d="M377.353 558.997c49.92 0 91.733-33.28 105.387-78.933v0h243.2c17.493 0 32-14.507 32-32v0-78.933c0-17.92-14.507-32-32-32-17.92 0-32 14.080-32 32v0 46.933h-56.747v-46.933c0-17.92-14.507-32-32-32-17.92 0-32 14.080-32 32v0 46.933h-90.453c-13.653-45.653-55.467-78.933-105.387-78.933-61.44 0-111.36 49.493-111.36 110.933 0 61.013 49.92 110.933 111.36 110.933zM377.353 494.997c-26.027 0-47.36-20.907-47.36-46.933s21.333-46.933 47.36-46.933c25.6 0 46.933 20.907 46.933 46.933s-21.333 46.933-46.933 46.933z" />
<glyph unicode="&#xe9a8;" d="M938.667 447.794c0-235.047-191.506-426.461-426.667-426.461s-426.667 191.413-426.667 426.461c0 235.459 191.506 426.872 426.667 426.872s426.667-191.413 426.667-426.872z" />
<glyph unicode="&#xe9a9;" d="M682.667 447.793c0-10.783-3.394-21.608-10.182-30.276-1.273-1.7-7.212-8.71-11.879-13.272l-2.545-2.488c-35.636-37.783-124.303-94.603-169.273-112.81 0-0.415-26.727-11.24-39.455-11.613h-1.697c-19.515 0-37.758 10.742-47.091 28.161-5.091 9.581-9.758 37.368-10.182 37.742-3.818 24.926-6.364 63.082-6.364 104.971 0 43.921 2.545 83.778 7.212 108.248 0 0.415 4.667 22.811 7.636 30.276 4.667 10.742 13.152 19.908 23.758 25.714 8.485 4.106 17.394 6.221 26.727 6.221 9.758-0.456 28-6.636 35.212-9.539 47.515-18.249 138.303-77.972 173.091-114.469 5.939-5.806 12.303-12.899 14-14.516 7.212-9.124 11.030-20.322 11.030-32.35z" />
<glyph unicode="&#xe9aa;" d="M711.111 874.667h-398.222c-145.256 0-227.556-82.299-227.556-227.556v-398.222c0-144.877 81.92-227.556 227.556-227.556h398.222c145.256 0 227.556 82.679 227.556 227.556v398.222c0 145.256-82.299 227.556-227.556 227.556z" />
<glyph unicode="&#xe9ab;" d="M653.673 417.778h-109.693v-108.742c0-17.509-14.318-31.702-31.98-31.702s-31.98 14.194-31.98 31.702v108.742h-109.693c-16.475 1.691-28.994 15.454-28.994 31.873s12.519 30.181 28.994 31.873h109.349v108.401c1.706 16.332 15.589 28.743 32.151 28.743s30.445-12.411 32.151-28.743v-108.401h109.693c16.475-1.691 28.994-15.454 28.994-31.873s-12.519-30.181-28.994-31.873v0z" />
<glyph unicode="&#xe9ac;" d="M511.863 312.55c-184.021 0-341.205-29.013-341.205-145.067 0-116.096 156.203-146.133 341.205-146.133 184.021 0 341.205 28.971 341.205 145.067s-156.16 146.133-341.205 146.133z" />
<glyph unicode="&#xe9ad;" d="M511.863 423.095c125.355 0 225.792 100.48 225.792 225.792s-100.437 225.792-225.792 225.792c-125.312 0-225.792-100.48-225.792-225.792s100.48-225.792 225.792-225.792z" />
<glyph unicode="&#xe9ae;" d="M629.867 672.313c25.813 0 50.603-10.167 68.651-28.283 18.176-18.284 28.245-42.843 28.203-68.407v0-53.135c-0.213-6.234-5.291-11.297-11.648-11.464v0h-406.187c-6.315 0.209-11.392 5.272-11.524 11.464v0 53.135c-0.466 52.926 42.884 96.146 96.814 96.69v0zM733.594 831.987c93.739 0 169.941-74.724 169.941-166.645v0-79.201c0-17.572-14.507-31.881-32.469-31.881-17.92 0-32.469 14.309-32.469 31.881v0 79.201c0 56.775-47.104 102.966-105.003 102.966v0h-67.968c-17.92 0-32.469 14.225-32.469 31.798 0 17.614 14.549 31.881 32.469 31.881v0zM359.582 832c17.92 0 32.469-14.267 32.469-31.881 0-17.572-14.507-31.839-32.469-31.839v0l-69.504-0.042c-57.685-0.084-104.619-46.148-104.619-102.756v0-79.327c0-17.572-14.592-31.881-32.512-31.881s-32.469 14.309-32.469 31.881v0 79.327c0 91.711 76.075 166.394 169.557 166.477v0z" />
<glyph unicode="&#xe9af;" d="M948.864 446.241h-873.685c-17.92 0-32.512-14.267-32.512-31.881 0-17.572 14.592-31.798 32.512-31.798h45.269v-152.043c0-91.711 76.117-166.394 169.6-166.477l69.504-0.042c17.963 0 32.469 14.267 32.512 31.881 0 17.572-14.549 31.839-32.469 31.839l-69.461 0.042c-57.728 0.084-104.704 46.148-104.704 102.756v152.043h111.915v-42.299c-0.427-52.926 42.88-96.188 96.811-96.69h235.691c53.973 0.502 97.28 43.764 96.853 96.69v42.299h111.915v-151.875c0-56.817-47.104-102.966-105.003-102.966h-67.968c-17.963 0-32.512-14.267-32.512-31.839 0-17.614 14.549-31.881 32.512-31.881h67.968c93.696 0 169.941 74.724 169.941 166.686v151.875h45.312c17.92 0 32.469 14.225 32.469 31.798 0 17.614-14.549 31.881-32.469 31.881z" />
<glyph unicode="&#xe9b0;" d="M819.133 505.462c0-203.906-164.267-369.205-366.9-369.205s-366.9 165.299-366.9 369.205c0 203.906 164.267 369.205 366.9 369.205s366.9-165.299 366.9-369.205z" />
<glyph unicode="&#xe9b1;" d="M882.117 23.242c-14.252 0.461-27.805 6.326-37.942 16.418l-86.887 101.56c-18.628 17.035-20.151 45.988-3.415 64.907v0c7.834 7.927 18.485 12.385 29.595 12.385s21.761-4.457 29.595-12.385l109.273-87.433c15.74-16.11 20.597-40.027 12.401-61.060s-27.916-35.251-50.343-36.3l-2.277 1.909z" />
<glyph unicode="&#xe9b2;" d="M914.237 849.993c-21.333 21.803-52.907 29.867-82.347 21.333l-686.507-198.357c-31.061-8.619-53.077-33.237-59.008-64.469-6.059-31.829 15.104-72.277 42.752-89.173l214.656-131.072c22.016-13.483 50.432-10.112 68.651 8.149l245.803 245.803c12.373 12.843 32.853 12.843 45.227 0 12.373-12.331 12.373-32.427 0-45.227l-246.229-245.803c-18.261-18.261-21.675-46.592-8.235-68.651l131.157-215.467c15.36-25.557 41.813-40.107 70.827-40.107 3.413 0 7.253 0 10.667 0.469 33.28 4.224 59.733 26.88 69.547 58.88l203.52 681.344c8.96 29.013 0.853 60.587-20.48 82.347z" />
<glyph unicode="&#xe9b3;" d="M403.261 143.266c12.459-12.501 12.459-32.768 0-45.269l-58.283-58.24c-6.229-6.272-14.421-9.387-22.613-9.387s-16.384 3.115-22.613 9.387c-12.501 12.501-12.501 32.725 0 45.227l58.24 58.283c12.501 12.459 32.768 12.459 45.269 0zM369.823 304.888c12.459-12.501 12.459-32.768 0-45.269l-58.283-58.24c-6.229-6.272-14.421-9.387-22.613-9.387s-16.384 3.115-22.613 9.387c-12.501 12.501-12.501 32.725 0 45.227l58.24 58.283c12.501 12.459 32.768 12.459 45.269 0zM209.345 355.763c12.459-12.501 12.459-32.768 0-45.269l-58.283-58.24c-6.229-6.272-14.421-9.387-22.613-9.387s-16.384 3.115-22.613 9.387c-12.501 12.501-12.501 32.725 0 45.227l58.24 58.283c12.501 12.459 32.768 12.459 45.269 0z" />
<glyph unicode="&#xe9b4;" d="M512.511 327.249c-68.458 0-123.834 53.333-123.834 120.32s55.376 120.747 123.834 120.747c68.458 0 122.526-53.76 122.526-120.747s-54.068-120.32-122.526-120.32z" />
<glyph unicode="&#xe9b5;" d="M905.815 346.876c-8.285 12.8-20.058 25.6-35.319 33.707-12.209 5.973-20.058 15.787-27.034 27.307-22.238 36.693-9.157 84.907 27.906 106.667 43.604 24.32 57.557 78.507 32.267 120.747l-29.214 50.347c-24.854 42.24-79.358 57.173-122.526 32.427-38.371-20.48-87.643-6.827-109.881 29.44-6.977 11.947-10.901 24.747-10.029 37.547 1.308 16.64-3.924 32.427-11.773 45.227-16.133 26.453-45.348 44.373-77.614 44.373h-61.481c-31.831-0.853-61.045-17.92-77.178-44.373-8.285-12.8-13.081-28.587-12.209-45.227 0.872-12.8-3.052-25.6-10.029-37.547-22.238-36.267-71.51-49.92-109.445-29.44-43.604 24.747-97.672 9.813-122.962-32.427l-29.214-50.347c-24.854-42.24-10.901-96.427 32.267-120.747 37.063-21.76 50.144-69.973 28.342-106.667-7.413-11.52-15.261-21.333-27.47-27.307-14.825-8.107-27.906-20.907-34.883-33.707-16.133-26.453-15.261-59.733 0.872-87.467l30.086-51.2c16.133-27.307 46.22-44.373 77.614-44.373 14.825 0 32.267 4.267 46.22 12.8 10.901 7.253 23.982 9.813 38.371 9.813 43.167 0 79.358-35.413 80.23-77.653 0-49.067 40.115-87.467 90.695-87.467h59.301c50.144 0 90.259 38.4 90.259 87.467 1.308 42.24 37.499 77.653 80.667 77.653 13.953 0 27.034-2.56 38.371-9.813 13.953-8.533 30.958-12.8 46.22-12.8 30.958 0 61.045 17.067 77.178 44.373l30.522 51.2c15.697 28.587 17.005 61.013 0.872 87.467z" />
<glyph unicode="&#xe9b6;" d="M515.692 21.333c-5.283 0-10.567 1.213-15.335 3.682l-153.647 79.535c-43.598 22.593-77.704 47.947-104.335 77.485-58.289 64.599-90.719 147.522-91.234 233.542l-1.806 283.121c-0.213 32.676 20.877 62.005 52.406 73.050l282.122 98.362c16.752 5.983 35.437 6.067 52.49 0.293l283.196-95.015c31.7-10.585 53.134-39.705 53.306-72.339l1.804-283.33c0.558-85.894-30.755-169.153-88.142-234.463-26.331-29.956-60.136-55.687-103.305-78.698l-152.272-81.334c-4.725-2.552-9.965-3.849-15.249-3.891z" />
<glyph unicode="&#xe9b7;" d="M482.952 348.974c-8.247-0.041-16.494 2.929-22.852 9.038l-81.785 78.656c-12.629 12.217-12.757 32.048-0.258 44.349 12.5 12.342 32.903 12.468 45.574 0.293l58.847-56.566 143.681 141.665c12.543 12.342 32.946 12.468 45.574 0.293 12.671-12.217 12.8-32.090 0.301-44.349l-166.361-164.049c-6.271-6.192-14.476-9.288-22.723-9.33z" />
<glyph unicode="&#xe9b8;" d="M515.671 21.333c-5.284 0-10.524 1.213-15.293 3.682l-153.656 79.535c-43.644 22.593-77.752 47.947-104.342 77.485-58.335 64.599-90.724 147.522-91.283 233.542l-1.763 283.121c-0.213 32.676 20.836 62.005 52.366 73.050l282.139 98.362c16.796 5.983 35.482 6.067 52.493 0.293l283.213-95.015c31.702-10.585 53.137-39.705 53.309-72.339l1.804-283.33c0.558-85.894-30.714-169.153-88.104-234.463-26.375-29.956-60.139-55.687-103.311-78.698l-152.281-81.334c-4.725-2.552-10.009-3.849-15.293-3.891z" />
<glyph unicode="&#xe9b9;" d="M557.558 459.738l57.948 56.44c12.586 12.259 12.586 32.090 0 44.349s-32.991 12.259-45.577 0l-57.948-56.398-57.906 56.398c-12.586 12.259-32.991 12.259-45.577 0s-12.586-32.090 0-44.349l57.948-56.44-57.948-56.44c-12.586-12.259-12.586-32.090 0-44.349 6.315-6.15 14.562-9.204 22.81-9.204 8.205 0 16.452 3.054 22.767 9.204l57.906 56.398 57.948-56.398c6.315-6.15 14.519-9.204 22.767-9.204s16.495 3.054 22.81 9.204c12.586 12.259 12.586 32.090 0 44.349l-57.948 56.44z" />
<glyph unicode="&#xe9ba;" d="M512 789.333c88.247 0 171.915-30.617 244.761-87.299 72.846-56.227 134.868-138.602 179.408-241.623 3.33-7.82 3.33-16.963 0-24.411-89.080-206.041-247.675-329.335-424.169-329.335v0h-0.416c-176.078 0-334.673 123.294-423.753 329.335-3.33 7.447-3.33 16.591 0 24.411 89.080 206.083 247.675 328.921 423.753 328.921v0zM512 613.495c-91.993 0-166.504-74.059-166.504-165.495 0-91.022 74.511-165.081 166.504-165.081 91.577 0 166.088 74.059 166.088 165.081 0 91.436-74.511 165.495-166.088 165.495z" />
<glyph unicode="&#xe9bb;" d="M615.72 448.132c0-56.682-46.621-103.021-103.649-103.021-57.444 0-104.065 46.339-104.065 103.021 0 7.034 0.833 13.612 2.081 20.232h2.081c46.205 0 83.668 36.409 85.333 81.961 4.579 0.786 9.574 1.241 14.569 1.241 57.028 0 103.649-46.339 103.649-103.434z" />
<glyph unicode="&#xe9bc;" d="M553.656 827.152l94.996-190.902c6.999-13.831 20.356-23.436 35.762-25.57l213.379-31.077c12.461-1.75 23.77-8.324 31.409-18.356 7.554-9.904 10.797-22.454 8.962-34.791-1.494-10.245-6.316-19.722-13.699-26.979l-154.615-149.879c-11.309-10.459-16.43-25.955-13.699-41.109l38.067-210.71c4.054-25.442-12.803-49.433-38.067-54.257-10.413-1.665-21.082 0.085-30.471 4.866l-190.334 99.165c-14.126 7.129-30.812 7.129-44.938 0l-190.334-99.165c-23.386-12.422-52.363-3.97-65.379 19.082-4.822 9.178-6.529 19.637-4.95 29.839l38.067 210.752c2.731 15.112-2.433 30.693-13.699 41.152l-154.615 149.793c-18.393 17.758-18.948 47-1.238 65.399 0.384 0.384 0.811 0.811 1.238 1.238 7.34 7.47 16.985 12.209 27.398 13.447l213.379 31.12c15.363 2.177 28.721 11.697 35.762 25.613l91.582 191.329c8.151 16.392 25.051 26.595 43.401 26.168h5.719c15.918-1.921 29.788-11.782 36.915-26.168z" />
<glyph unicode="&#xe9bd;" d="M511.659 152.87c-8.265-0.256-16.316-2.477-23.558-6.448l-189.403-98.94c-23.175-11.060-50.908-2.477-63.901 19.685-4.814 9.053-6.561 19.429-4.942 29.592l37.83 210.306c2.556 15.287-2.556 30.831-13.675 41.591l-154.684 149.755c-18.361 17.977-18.702 47.484-0.724 65.889 0.256 0.256 0.469 0.47 0.724 0.683 7.327 7.259 16.785 12.042 26.966 13.536l213.558 31.428c15.464 1.964 28.883 11.615 35.7 25.621l92.827 193.738c8.818 15.629 25.731 24.938 43.623 23.956-0.341-12.682-0.341-691.767-0.341-700.393z" />
<glyph unicode="&#xe9be;" d="M286.103 410.004c-22.021 0-39.847-18.092-39.847-40.44l-10.985-195.359c0-28.48 22.77-51.538 50.833-51.538s50.783 23.058 50.783 51.538l-10.936 195.359c0 22.348-17.826 40.44-39.847 40.44z" />
<glyph unicode="&#xe9bf;" d="M340.496 803.266c0 0-11.435 11.757-18.525 16.875-10.286 7.906-22.97 11.858-35.603 11.858-14.181 0-27.364-4.46-38.1-12.872-1.947-1.976-10.236-9.426-17.077-16.369-42.943-40.592-113.2-146.557-134.672-202.048-3.396-8.412-10.736-29.697-11.185-41.099 0-10.845 2.397-21.284 7.29-31.166 6.841-12.365 17.577-22.298 30.26-27.72 8.788-3.497 35.104-8.919 35.603-8.919 28.812-5.473 75.65-8.412 127.381-8.412 49.285 0 94.175 2.939 123.437 7.399 0.499 0.507 33.156 5.929 44.391 11.909 20.473 10.896 33.206 32.18 33.206 54.934v1.976c-0.499 14.848-13.232 46.065-13.682 46.065-21.472 52.501-88.333 155.983-132.724 197.589z" />
<glyph unicode="&#xe9c0;" d="M737.907 485.99c22.021 0 39.847 18.092 39.847 40.441l10.936 195.363c0 28.481-22.72 51.539-50.783 51.539s-50.833-23.058-50.833-51.539l10.985-195.363c0-22.349 17.826-40.441 39.847-40.441z" />
<glyph unicode="&#xe9c1;" d="M931.376 367.561c-6.841 12.365-17.577 22.248-30.26 27.721-8.788 3.497-35.153 8.919-35.603 8.919-28.812 5.473-75.65 8.413-127.381 8.413-49.285 0-94.175-2.939-123.437-7.399-0.499-0.507-33.156-5.98-44.391-11.909-20.523-10.896-33.206-32.18-33.206-54.986v-1.976c0.499-14.849 13.183-46.016 13.682-46.016 21.472-52.502 88.283-156.037 132.724-197.593 0 0 11.435-11.757 18.525-16.825 10.236-7.956 22.92-11.909 35.653-11.909 14.131 0 27.264 4.46 38.050 12.872 1.947 1.976 10.236 9.426 17.077 16.318 42.893 40.644 113.2 146.611 134.622 202.053 3.445 8.413 10.786 29.748 11.235 41.1 0 10.896-2.397 21.335-7.29 31.218z" />
<glyph unicode="&#xe9c2;" d="M697.186 874.675h-369.92c-144.64 0-241.92-101.547-241.92-252.587v-348.587c0-150.613 97.28-252.16 241.92-252.16h369.92c144.64 0 241.493 101.547 241.493 252.16v348.587c0 151.040-96.853 252.587-241.493 252.587z" />
<glyph unicode="&#xe9c3;" d="M461.372 309.423c-9.557 0-19.115 3.627-26.411 10.923l-101.248 101.248c-14.592 14.592-14.592 38.229 0 52.779 14.592 14.592 38.187 14.635 52.779 0.043l74.88-74.88 176.128 176.128c14.592 14.592 38.187 14.592 52.779 0s14.592-38.229 0-52.821l-202.496-202.496c-7.296-7.296-16.853-10.923-26.411-10.923z" />
<glyph unicode="&#xe9c4;" d="M906.667 385.008c-35.029 0-63.531 28.241-63.531 62.95 0 34.752 28.501 62.992 63.531 62.992 8.491 0 16.64 3.34 22.613 9.259 6.016 5.961 9.387 14.036 9.387 22.449l-0.043 114.232c0 96.56-79.317 175.11-176.768 175.11h-499.712c-97.451 0-176.768-78.55-176.768-175.11l-0.043-117.91c0-8.413 3.371-16.488 9.387-22.449 5.973-5.919 14.123-9.259 22.613-9.259 36.224 0 63.531-25.493 63.531-59.314 0-34.709-28.501-62.95-63.531-62.95-17.664 0-32-14.205-32-31.708v-114.147c0-96.56 79.275-175.153 176.768-175.153h499.797c97.493 0 176.768 78.593 176.768 175.153v114.147c0 17.503-14.336 31.708-32 31.708z" />
<glyph unicode="&#xe9c5;" d="M658.368 465.553l-50.304-48.981 11.904-69.248c2.048-11.989-2.773-23.808-12.629-30.891-9.771-7.168-22.528-8.064-33.28-2.347l-62.080 32.64-62.208-32.683c-4.608-2.432-9.643-3.712-14.635-3.712-6.528 0-12.971 2.048-18.517 6.059-9.813 7.125-14.635 18.944-12.587 30.933l11.861 69.248-50.304 48.981c-8.704 8.448-11.733 20.864-7.979 32.427 3.797 11.52 13.611 19.712 25.6 21.419l69.376 10.112 31.104 63.019c5.419 10.837 16.256 17.579 28.288 17.579h0.085c12.075-0.043 22.912-6.784 28.245-17.621l31.104-62.976 69.504-10.155c11.861-1.664 21.675-9.856 25.429-21.376 3.797-11.563 0.768-23.979-7.979-32.427z" />
<glyph unicode="&#xe9c6;" d="M586.687 546.005v86.18c-16.918 0-30.948 13.628-30.948 30.063v102.614c0 13.669-11.141 24.451-25.171 24.451h-283.482c-89.13 0-161.754-70.507-161.754-157.128v-103.777c0-8.057 3.301-15.673 9.078-21.284 5.777-5.572 13.617-8.778 21.87-8.778 31.36 0 55.293-21.645 55.293-50.105 0-29.702-24.346-53.351-54.881-53.712-16.918 0-31.36-11.624-31.36-28.459v-102.655c0-86.581 72.624-156.728 161.341-156.728h283.894c14.030 0 25.171 10.863 25.171 24.451v86.621c0 16.795 14.030 30.063 30.948 30.063v77.722c-16.918 0-30.948 13.669-30.948 30.063v160.335c0 16.434 14.030 30.063 30.948 30.063z" />
<glyph unicode="&#xe9c7;" d="M852.426 448.22c0-29.662 24.758-53.311 54.881-53.712 16.918 0 31.36-11.624 31.36-28.059v-103.015c0-86.621-72.211-156.768-161.341-156.768h-134.52c-13.617 0-25.171 10.863-25.171 24.491v86.581c0 16.835-13.617 30.063-30.948 30.063v77.722c17.331 0 30.948 13.669 30.948 30.063v160.335c0 16.474-13.617 30.063-30.948 30.063v86.22c17.331 0 30.948 13.628 30.948 30.063v102.574c0 13.669 11.554 24.491 25.171 24.491h134.52c89.13 0 161.341-70.147 161.341-156.728v-101.011c0-8.017-3.301-15.673-9.078-21.244-5.777-5.612-13.617-8.818-21.87-8.818-30.535 0-55.293-24.090-55.293-53.311z" />
<glyph unicode="&#xe9c8;" d="M938.658 448.004c0-235.691-191.019-426.667-426.667-426.667s-426.667 190.976-426.667 426.667c0 235.605 191.019 426.667 426.667 426.667s426.667-191.061 426.667-426.667z" />
<glyph unicode="&#xe9c9;" d="M664.469 285.252c-5.589 0-11.221 1.451-16.384 4.48l-167.509 99.925c-9.643 5.803-15.573 16.256-15.573 27.52v215.339c0 17.664 14.336 32 32 32s32-14.336 32-32v-197.163l151.893-90.581c15.147-9.088 20.139-28.715 11.093-43.904-6.016-10.027-16.64-15.616-27.52-15.616z" />
<glyph unicode="&#xe9ca;" d="M697.173 874.675h-369.92c-144.64 0-241.92-101.547-241.92-252.587v-348.587c0-150.613 97.28-252.16 241.92-252.16h369.92c144.64 0 241.493 101.547 241.493 252.16v348.587c0 151.040-96.853 252.587-241.493 252.587z" />
<glyph unicode="&#xe9cb;" d="M664.465 285.257c-5.589 0-11.221 1.451-16.384 4.48l-167.509 99.925c-9.643 5.803-15.573 16.256-15.573 27.52v215.339c0 17.664 14.336 32 32 32s32-14.336 32-32v-197.163l151.893-90.581c15.147-9.088 20.139-28.715 11.093-43.904-6.016-10.027-16.64-15.616-27.52-15.616z" />
<glyph unicode="&#xe9cc;" d="M351.534 588.413v57.251c0.434 85.198 71.97 154.789 160.414 154.789 67.634 0 128.332-41.984 150.443-104.79 7.37-19.508 29.048-29.643 48.558-22.9 9.538 3.011 17.342 9.796 21.678 18.702s5.203 19.084 1.734 28.413c-32.95 92.407-122.262 154.789-223.28 154.789-129.199 0-234.552-103.094-235.419-229.851v-65.011l75.872 8.609z" />
<glyph unicode="&#xe9cd;" d="M692.531 588.328c100.584 0 182.135-79.769 182.135-178.156v0-210.683c0-98.387-81.551-178.156-182.135-178.156v0h-361.063c-100.584 0-182.135 79.769-182.135 178.156v0 210.683c0 98.387 81.551 178.156 182.135 178.156v0zM511.783 389.011c-20.811 0-37.719-16.539-37.719-36.895v0-94.146c0-20.78 16.909-37.319 37.719-37.319 21.244 0 38.153 16.539 38.153 37.319v0 94.146c0 20.356-16.909 36.895-38.153 36.895z" />
<glyph unicode="&#xe9ce;" d="M275.072 21.333c-104.576 0-189.739 86.624-189.739 193.047v211.674c0 106.206 84.907 192.613 189.312 192.613h474.283c104.619 0 189.739-86.624 189.739-193.090v-211.587c0-106.25-84.907-192.656-189.312-192.656h-474.283z" />
<glyph unicode="&#xe9cf;" d="M488.738 865.234l-124.117-121.42c-12.8-12.549-12.8-32.744 0.085-45.252 12.885-12.466 33.664-12.425 46.464 0.083l67.968 66.528v-421.772c0-17.66 14.72-31.996 32.853-31.996 18.176 0 32.853 14.336 32.853 31.996v421.772l67.968-66.528c12.8-12.508 33.579-12.549 46.464-0.083 6.443 6.275 9.685 14.461 9.685 22.688 0 8.145-3.243 16.331-9.6 22.564l-124.075 121.42c-6.187 6.025-14.549 9.433-23.296 9.433-8.704 0-17.067-3.407-23.253-9.433z" />
<glyph unicode="&#xe9d0;" d="M910.122 642.452c-17.878 11.262-39.851 12.259-58.582 2.729l-63.233-31.924c-23.382-11.782-37.888-35.606-37.888-62.116v-248.896c0-26.51 14.507-50.29 37.888-62.159l63.19-31.881c8.576-4.418 17.75-6.541 26.923-6.541 11.008 0 21.931 3.119 31.702 9.226 17.878 11.219 28.544 30.668 28.544 51.98v327.559c0 21.312-10.667 40.761-28.544 52.023z" />
<glyph unicode="&#xe9d1;" d="M507.951 106.667h-247.128c-103.34 0-175.49 71.256-175.49 173.266v293.469c0 102.053 72.15 173.266 175.49 173.266h247.128c103.34 0 175.49-71.212 175.49-173.266v-293.469c0-102.010-72.15-173.266-175.49-173.266z" />
<glyph unicode="&#xe9d2;" d="M504.535 310.736h14.921c82.085 0 151.729 52.573 176.239 125.472 3.555 10.612-4.588 21.551-15.871 21.551h-45.961c-14.631 0-26.452 11.674-26.452 26.082 0 14.449 11.821 26.164 26.452 26.164h44.556c14.755 0 26.7 11.796 26.7 26.368s-11.945 26.368-26.7 26.368h-44.556c-14.631 0-26.452 11.715-26.452 26.123 0 14.449 11.821 26.164 26.452 26.164h44.556c14.755 0 26.7 11.796 26.7 26.368s-11.945 26.368-26.7 26.368h-44.556c-14.631 0-26.452 11.715-26.452 26.164 0 14.408 11.821 26.123 26.452 26.123h48.317c11.077 0 19.013 10.449 16.037 21.021-21.947 77.104-93.658 133.595-178.76 133.595h-14.921c-102.544 0-185.663-82.043-185.663-183.351v-197.229c0-101.268 83.118-183.351 185.663-183.351z" />
<glyph unicode="&#xe9d3;" d="M833.335 540.773c-22.815 0-41.332-18.245-41.332-40.817 0-152.452-125.608-276.496-279.982-276.496-154.416 0-280.024 124.044-280.024 276.496 0 22.572-18.517 40.817-41.332 40.817s-41.332-18.245-41.332-40.817c0-183.678 140.776-335.314 321.355-355.681v-82.124c0-22.531 18.475-40.817 41.332-40.817 22.815 0 41.332 18.286 41.332 40.817v82.124c180.538 20.368 321.314 172.004 321.314 355.681 0 22.572-18.517 40.817-41.332 40.817z" />
<glyph unicode="&#xe9d4;" d="M833.335 540.771c-22.815 0-41.332-18.245-41.332-40.817 0-152.452-125.608-276.495-279.982-276.495-154.416 0-280.024 124.043-280.024 276.495 0 22.572-18.517 40.817-41.332 40.817s-41.332-18.245-41.332-40.817c0-183.677 140.776-335.312 321.355-355.68v-82.124c0-22.531 18.475-40.817 41.332-40.817 22.815 0 41.332 18.286 41.332 40.817v82.124c180.538 20.368 321.314 172.003 321.314 355.68 0 22.572-18.517 40.817-41.332 40.817z" />
<glyph unicode="&#xe9d5;" d="M504.515 310.738h14.962c102.503 0 185.663 82.083 185.663 183.309v197.269c0 101.308-83.16 183.35-185.663 183.35h-14.962c-102.503 0-185.663-82.042-185.663-183.35v-197.269c0-101.226 83.16-183.309 185.663-183.309z" />
<glyph unicode="&#xe9d6;" d="M655.854 684.776c-2.15 20.751-4.39 42.28-9.899 63.763-15.006 51.395-56.573 83.461-101.142 83.461-24.86 0.091-56.304-15.208-74.132-30.691l-147.771-123.633h-77.357c-56.931 0-102.709-43.837-111.354-107.097-7.346-60.74-9.138-175.395 0-242.227 7.928-66.832 51.646-110.028 111.354-110.028h77.357l150.637-125.465c15.453-13.421 42.732-28.813 67.816-28.813 1.613-0.046 3.046-0.046 4.479-0.046 45.42 0 85.419 33.256 100.425 84.514 5.689 21.804 7.66 42.234 9.586 61.977l2.016 19.56c7.704 63.443 7.704 372.869 0 435.853l-2.016 18.872z" />
<glyph unicode="&#xe9d7;" d="M828.856 682.898c-12.228 18.094-36.685 22.583-54.557 10.078-17.738-12.643-22.128-37.653-9.81-55.793 34.266-50.479 53.124-117.632 53.124-189.183 0-71.505-18.858-138.703-53.124-189.183-12.318-18.14-7.928-43.15 9.81-55.793 6.585-4.672 14.334-7.146 22.351-7.146 12.855 0 24.86 6.459 32.206 17.223 43.27 63.717 67.144 147.132 67.144 234.898s-23.874 171.181-67.144 234.898z" />
<glyph unicode="&#xe9d8;" d="M657.752 383.155l3.045-0.316c16.622-4.245 19.829-28.046 19.603-46.743-0.768-54.286-2.62-92.042-5.511-115.391v0l-2.033-19.239c-1.942-19.465-3.93-39.608-9.666-61.105-15.086-50.492-55.421-83.28-101.222-83.28-1.536 0-3.026 0-4.562 0.045-25.294 0-52.802 15.175-68.385 28.407v0l-55.512 42.95c-21.048 15.671-14.86 40.737-3.026 55.234 11.834 14.452 198.288 184.355 204.431 190.406 6.143 6.007 19.738 10.252 25.881 8.716zM561.071 814.157c45.168 0 86.723-31.659 101.628-82.241 5.872-21.181 8.13-42.453 9.937-62.731v0l3.613-28.949c0.903-6.729 1.807-12.6 2.258-20.775v0l-410.127-410.078h-9.485c-60.074 0-103.887 42.453-112.017 108.391-9.034 65.938-7.227 178.845 0 238.911 8.582 62.325 54.653 105.229 112.017 105.229v0h78.141l149.055 121.985c18.067 15.31 50.137 29.762 74.979 30.259z" />
<glyph unicode="&#xe9d9;" d="M927.042 820.489c-15.944 15.401-40.425 15.31-55.783-0.045l-731.724-731.637c-15.402-15.401-15.402-39.924 0.136-56.047 7.95-7.362 17.796-11.426 27.778-11.426 10.208 0 20.687 4.29 27.959 11.562l731.679 731.637c15.448 15.446 15.448 40.466-0.045 55.957z" />
<glyph unicode="&#xe9da;" d="M569.903 684.776c-2.148 20.751-4.385 42.28-9.888 63.763-14.988 51.395-56.507 83.461-101.023 83.461-24.831 0.091-56.238-15.208-74.045-30.691l-147.598-123.633h-77.266c-56.865 0-102.589-43.837-111.224-107.097-7.337-60.74-9.127-175.395 0-242.227 7.919-66.832 51.585-110.028 111.224-110.028h77.266l150.461-125.465c15.435-13.421 42.682-28.813 67.737-28.813 1.611-0.046 3.042-0.046 4.474-0.046 45.367 0 85.319 33.256 100.307 84.514 5.682 21.804 7.651 42.234 9.574 61.977l2.013 19.56c7.695 63.443 7.695 372.869 0 435.853l-2.013 18.872z" />
<glyph unicode="&#xe9db;" d="M742.68 682.898c-12.304 18.14-36.687 22.674-54.538 10.078-17.672-12.689-22.057-37.699-9.753-55.793 34.226-50.433 53.062-117.586 53.062-189.183 0-71.55-18.836-138.749-53.062-189.183-12.304-18.094-7.919-43.104 9.798-55.793 6.622-4.672 14.362-7.146 22.325-7.146 12.84 0 24.831 6.459 32.168 17.223 43.219 63.672 67.066 147.086 67.066 234.898s-23.847 171.226-67.066 234.898z" />
<glyph unicode="&#xe9dc;" d="M877.536 812.49c-12.214 18.094-36.687 22.72-54.494 10.078-17.672-12.689-22.057-37.699-9.798-55.793 57.894-85.293 89.793-198.527 89.793-318.771 0-120.289-31.9-233.524-89.793-318.816-12.259-18.14-7.874-43.104 9.843-55.793 6.622-4.672 14.317-7.146 22.281-7.146 12.84 0 24.876 6.459 32.168 17.223 66.931 98.531 103.797 227.981 103.797 364.532 0 136.459-36.866 265.955-103.797 364.486z" />
<glyph unicode="&#xe9dd;" d="M704.588 832c147.039 0 233.927-84.421 233.927-227.749v0-1.59h-180.679c-84.082-0.148-152.197-66.561-152.348-148.541-0.114-82.166 68.077-148.874 152.348-148.985v0h180.831v-13.053c0-143.327-86.888-228.081-233.927-228.081v0h-385.441c-147.077 0-233.965 84.754-233.965 228.081v0 312.17c0 143.327 86.888 227.749 233.965 227.749v0zM528.346 666.671h-240.792c-17.901-0.074-32.427-14.237-32.503-31.728-0.076-17.565 14.488-31.875 32.503-31.949v0h241.095c18.015 0.074 32.578 14.385 32.503 31.986-0.076 17.565-14.791 31.764-32.806 31.691v0z" />
<glyph unicode="&#xe9de;" d="M684.263 435.342c8.923-40.584 44.504-69.137 85.128-68.395h138.664c16.902 0 30.613 13.998 30.613 31.301v108.013c-0.036 17.266-13.71 31.301-30.613 31.338h-141.928c-46.209-0.149-83.532-38.504-83.459-85.772 0-5.532 0.544-11.065 1.596-16.486z" />
<glyph unicode="&#xe9df;" d="M810.667 452.267c0-23.564-19.103-42.667-42.667-42.667s-42.667 19.103-42.667 42.667c0 23.564 19.103 42.667 42.667 42.667s42.667-19.103 42.667-42.667z" />
<glyph unicode="&#xe9e0;" d="M85.342 487.317c2.133-99.755 8.107-270.379 8.96-289.195 3.029-40.235 18.432-80.896 42.411-109.568 33.365-40.235 74.453-58.197 131.755-58.197 79.189-0.427 166.485-0.427 251.264-0.427 85.12 0 167.723 0 237.483 0.427 56.491 0 98.859 18.432 131.797 58.197 23.979 28.672 39.381 69.76 41.557 109.568 0.853 15.829 5.12 201.045 7.68 289.195h-852.907z" />
<glyph unicode="&#xe9e1;" d="M479.804 303.607v-55.211c0-17.664 14.336-32 32-32s32 14.336 32 32v55.211c0 17.664-14.336 32-32 32s-32-14.336-32-32z" />
<glyph unicode="&#xe9e2;" d="M566.882 874.65c64.043 0 116.565-48.171 124.587-110.123v0h84.352c89.557 0 162.432-72.875 162.432-162.475v0-147.883c0-10.752-5.419-20.779-14.336-26.709-87.979-58.24-192.427-97.024-301.995-112.171-1.493-0.213-2.944-0.299-4.395-0.299-14.464 0-27.392 9.771-31.019 24.107-8.619 33.963-39.467 57.728-74.923 57.728-35.925 0-66.432-23.253-75.904-57.899-4.267-15.488-19.157-25.387-35.285-23.253-108.843 15.189-212.864 53.803-300.672 111.787-9.003 5.888-14.379 15.957-14.379 26.709v0 147.883c0 89.6 73.045 162.475 162.859 162.475v0h83.925c8.021 61.952 60.501 110.123 124.587 110.123v0zM566.882 810.65h-110.165c-28.715 0-52.693-19.627-59.861-46.123v0h229.845c-7.168 26.496-31.147 46.123-59.819 46.123v0z" />
</font>
</defs>
</svg>
