<?xml version="1.0" standalone="no"?>
<!DOCTYPE svg PUBLIC "-//W3C//DTD SVG 1.1//EN" "http://www.w3.org/Graphics/SVG/1.1/DTD/svg11.dtd" >
<svg xmlns="http://www.w3.org/2000/svg">
<metadata>
<json>
<![CDATA[
{
	"fontFamily": "Iconly-bold",
	"fontURL": "",
	"designer": "",
	"designerURL": "",
	"license": "MIT",
	"licenseURL": "https://opensource.org/licenses/MIT",
	"description": "Iconly - Essential icons\nFont generated by IcoMoon.",
	"copyright": "MIT",
	"majorVersion": 1,
	"minorVersion": 0,
	"version": "Version 1.0",
	"fontId": "Iconly-bold",
	"psName": "Iconly-bold",
	"subFamily": "Regular",
	"fullName": "Iconly-bold"
}
]]>
</json>
</metadata>
<defs>
<font id="Iconly-bold" horiz-adv-x="1024">
<font-face units-per-em="1024" ascent="960" descent="-64" />
<missing-glyph horiz-adv-x="1024" />
<glyph unicode="&#x20;" horiz-adv-x="512" d="" />
<glyph unicode="&#xe900;" glyph-name="Activity" data-tags="Activity" d="M733.005 771.84c0 56.747 46.080 102.827 102.827 102.827s102.827-46.080 102.827-102.827c0-56.747-46.080-102.827-102.827-102.827s-102.827 46.080-102.827 102.827zM568.734 330.27l123.307 159.104-1.707-0.853c6.827 9.387 8.107 21.333 3.413 32-4.651 10.667-14.933 17.92-25.984 18.773-11.563 1.28-23.040-3.84-29.909-13.227l-103.211-133.547-118.229 93.013c-7.253 5.547-15.787 7.723-24.32 6.827-8.491-1.28-16.171-5.931-21.333-12.757l-126.251-164.309-2.603-3.84c-7.253-13.611-3.84-31.104 8.96-40.533 5.973-3.84 12.373-6.4 19.627-6.4 9.856-0.427 19.2 4.736 25.173 12.8l107.093 137.856 121.6-91.349 3.84-2.517c13.653-7.253 30.72-3.883 40.533 8.96zM659.187 798.707c-1.707-10.667-2.56-21.333-2.56-32 0-96 77.653-173.611 173.227-173.611 10.667 0 20.907 1.237 31.573 2.944v-344.277c0-144.683-85.333-230.443-230.4-230.443h-315.264c-145.109 0-230.443 85.76-230.443 230.443v315.691c0 145.067 85.333 231.253 230.443 231.253h343.424z" />
<glyph unicode="&#xe901;" glyph-name="Add-User" data-tags="Add User" d="M405.333 424.375c117.53 0 211.738 95.428 211.738 214.479 0 119.049-94.208 214.479-211.738 214.479-117.528 0-211.739-95.43-211.739-214.479 0-119.051 94.211-214.479 211.739-214.479zM405.333 319.351c-172.62 0-320-27.601-320-137.865 0-110.225 146.483-138.82 320-138.82 172.578 0 320 27.601 320 137.869 0 110.263-146.483 138.816-320 138.816zM848.977 550.918h51.332c21.129 0 38.357-17.47 38.357-38.897 0-21.423-17.229-38.895-38.357-38.895h-51.332v-50.231c0-21.427-17.182-38.895-38.353-38.895-21.129 0-38.357 17.468-38.357 38.895v50.231h-51.243c-21.175 0-38.357 17.472-38.357 38.895 0 21.427 17.182 38.897 38.357 38.897h51.243v50.186c0 21.426 17.229 38.896 38.357 38.896 21.171 0 38.353-17.47 38.353-38.896v-50.186z" />
<glyph unicode="&#xe902;" glyph-name="Arrow---Down" data-tags="Arrow - Down" d="M447.253 767.861l13.961-157.834c0-27.788 22.699-50.315 50.803-50.315 28.062 0 50.807 22.528 50.807 50.315l13.956 157.834c0 35.421-28.996 64.139-64.764 64.139-35.763 0-64.764-28.718-64.764-64.139zM458.671 84.732c2.402-2.185 4.241-3.861 5.107-4.719 13.726-10.475 30.502-16.013 48.55-16.013 16.166 0 32.337 4.932 45.402 14.801 9.071 6.332 23.637 20.945 23.637 20.945 56.636 51.759 141.841 180.501 169.242 245.803 0.567 0 16.781 38.818 17.391 57.297v2.466c0 28.348-16.166 54.831-42.3 68.378-10.803 5.594-37.278 10.846-49.826 13.333-4.045 0.802-6.643 1.318-6.805 1.468-37.316 5.538-94.562 9.216-157.35 9.216-65.984 0-125.674-3.678-162.38-10.428-0.611 0-34.215-6.797-45.401-11.123-16.167-6.797-29.891-19.085-38.586-34.492-6.204-12.335-9.353-25.271-9.353-38.818 0.658-14.195 9.964-40.678 14.334-51.153 27.4-68.979 116.932-200.841 171.684-251.341 5.7-5.645 12.16-11.524 16.653-15.62z" />
<glyph unicode="&#xe903;" glyph-name="Arrow---Down-2" data-tags="Arrow - Down 2" d="M463.744 250.419c-2.475 2.411-13.056 11.516-21.76 19.994-54.741 49.711-144.341 179.396-171.691 247.27-4.395 10.308-13.696 36.37-14.293 50.295 0 13.343 3.072 26.062 9.301 38.199 8.704 15.13 22.4 27.267 38.571 33.917 11.221 4.281 44.8 10.932 45.397 10.932 36.736 6.65 96.427 10.308 162.389 10.308 62.848 0 120.107-3.658 157.397-9.103 0.597-0.623 42.325-7.274 56.619-14.548 26.112-13.342 42.325-39.404 42.325-67.294v-2.411c-0.64-18.164-16.853-56.362-17.451-56.362-27.392-64.218-112.597-190.908-169.216-241.826 0 0-14.549-14.34-23.637-20.574-13.056-9.728-29.227-14.549-45.397-14.549-18.048 0-34.859 5.444-48.555 15.753z" />
<glyph unicode="&#xe904;" glyph-name="Arrow---Down-3" data-tags="Arrow - Down 3" d="M742.831 441.963c-5.385 9.984-15.629 16.209-26.769 16.209h-173.457v342.499c0 17.294-13.709 31.33-30.605 31.33-16.892 0-30.601-14.036-30.601-31.33v-342.499h-173.461c-11.18 0-21.422-6.225-26.767-16.209-5.427-9.984-5.060-22.182 0.857-31.829l204.061-331.511c5.632-9.109 15.386-14.622 25.911-14.622 10.53 0 20.279 5.513 25.911 14.622l204.062 331.511c3.102 5.094 4.693 10.901 4.693 16.708 0 5.18-1.306 10.402-3.836 15.121z" />
<glyph unicode="&#xe905;" glyph-name="Arrow---Down-Circle" data-tags="Arrow - Down Circle" d="M512.004 21.338c-235.519 0-426.666 191.573-426.666 426.667 0 235.52 191.147 426.666 426.666 426.666 235.093 0 426.667-191.147 426.667-426.666 0-235.093-191.573-426.667-426.667-426.667zM682.671 532.484c-12.8 12.373-32.853 12.373-45.227-0.427l-125.44-125.867-125.439 125.867c-12.373 12.8-32.853 12.8-45.227 0.427-12.8-12.8-12.8-32.853 0-45.227l148.052-148.907c5.973-5.973 14.080-9.387 22.613-9.387s16.64 3.413 22.613 9.387l148.053 148.907c6.4 5.973 9.387 14.080 9.387 22.187 0 8.533-2.987 16.64-9.387 23.040z" />
<glyph unicode="&#xe906;" glyph-name="Arrow---Down-Square" data-tags="Arrow - Down Square" d="M85.328 273.916v348.587c0 150.613 96.896 252.16 241.493 252.16h369.921c144.64 0 241.92-101.547 241.92-252.16v-348.587c0-151.040-97.28-252.587-241.92-252.587h-369.921c-144.597 0-241.493 101.547-241.493 252.587zM543.996 351.142v270.934c0 17.92-14.507 32-32 32-17.92 0-32-14.080-32-32v-270.934l-105.388 105.813c-5.973 5.973-14.507 9.387-22.613 9.387-8.064 0-16.213-3.413-22.613-9.387-12.373-12.373-12.373-32.853 0-45.227l160.001-160.853c11.947-11.947 33.28-11.947 45.227 0l160 160.853c12.373 12.373 12.373 32.853 0 45.227-12.8 12.373-32.853 12.373-45.653 0l-104.96-105.813z" />
<glyph unicode="&#xe907;" glyph-name="Arrow---Left" data-tags="Arrow - Left" d="M561.707 448.282l-0.068 15.108c-0.516 59.925-4.13 113.389-10.359 147.271 0 0.611-6.797 34.215-11.123 45.401-6.797 16.167-19.085 29.891-34.492 38.586-12.335 6.204-25.271 9.353-38.818 9.353-10.645-0.494-28.207-5.851-40.737-10.343l-10.415-3.991c-68.98-27.4-200.841-116.932-251.343-171.684l-3.723-3.827-16.617-17.933c-10.473-13.726-16.012-30.502-16.012-48.55 0-16.166 4.934-32.337 14.801-45.402 2.954-4.233 7.712-9.664 11.948-14.251l16.174-16.93c55.657-56.393 176.164-135.492 238.627-161.698 0-0.567 38.817-16.781 57.296-17.391h2.466c28.348 0 54.831 16.166 68.378 42.3 3.699 7.142 7.249 21.137 9.946 33.425l4.855 23.206c5.538 37.316 9.216 94.562 9.216 157.35zM831.859 383.219c35.422 0 64.141 28.996 64.141 64.764 0 35.763-28.719 64.764-64.141 64.764l-157.833-13.961c-27.785 0-50.313-22.699-50.313-50.803 0-28.062 22.528-50.807 50.313-50.807l157.833-13.956z" />
<glyph unicode="&#xe908;" glyph-name="Arrow---Left-2" data-tags="Arrow - Left 2" d="M314.42 496.256c2.411 2.475 11.513 13.056 19.993 21.76 49.712 54.741 179.396 144.341 247.27 171.691 10.308 4.395 36.369 13.696 50.295 14.293 13.342 0 26.061-3.072 38.199-9.301 15.13-8.704 27.264-22.4 33.916-38.571 4.279-11.221 10.931-44.8 10.931-45.397 6.652-36.736 10.308-96.427 10.308-162.389 0-62.848-3.657-120.107-9.101-157.397-0.627-0.597-7.275-42.325-14.549-56.619-13.342-26.112-39.403-42.325-67.294-42.325h-2.411c-18.163 0.64-56.363 16.853-56.363 17.451-64.218 27.392-190.909 112.597-241.827 169.216 0 0-14.34 14.549-20.575 23.637-9.726 13.056-14.548 29.227-14.548 45.397 0 18.048 5.445 34.859 15.753 48.555z" />
<glyph unicode="&#xe909;" glyph-name="Arrow---Left-3" data-tags="Arrow - Left 3" d="M505.963 217.169c9.984 5.385 16.209 15.629 16.209 26.769v173.457h342.498c17.293 0 31.33 13.709 31.33 30.605 0 16.892-14.037 30.601-31.33 30.601h-342.498v173.461c0 11.18-6.225 21.422-16.209 26.767-9.984 5.427-22.182 5.060-31.829-0.857l-331.513-204.061c-9.106-5.632-14.621-15.386-14.621-25.911 0-10.53 5.514-20.279 14.621-25.911l331.513-204.062c5.094-3.102 10.901-4.693 16.708-4.693 5.18 0 10.402 1.306 15.121 3.836z" />
<glyph unicode="&#xe90a;" glyph-name="Arrow---Left-Circle" data-tags="Arrow - Left Circle" d="M85.333 448c0 235.52 191.573 426.667 426.667 426.667l11.938-0.164c230.007-6.328 414.729-194.975 414.729-426.503 0-235.093-191.147-426.667-426.667-426.667-235.093 0-426.667 191.573-426.667 426.667zM596.48 277.333c12.373 12.8 12.373 32.853-0.427 45.227l-125.867 125.44 125.867 125.44c12.8 12.373 12.8 32.853 0.427 45.227-12.8 12.8-32.853 12.8-45.227 0l-148.907-148.053c-5.973-5.973-9.387-14.080-9.387-22.613s3.413-16.64 9.387-22.613l148.907-148.053c5.973-6.4 14.080-9.387 22.187-9.387 8.533 0 16.64 2.987 23.040 9.387z" />
<glyph unicode="&#xe90b;" glyph-name="Arrow---Left-Square" data-tags="Arrow - Left Square" d="M337.915 874.667h348.588c150.613 0 252.16-96.896 252.16-241.493v-369.92c0-144.64-101.547-241.92-252.16-241.92h-348.588c-151.040 0-252.587 97.28-252.587 241.92v369.92c0 144.597 101.547 241.493 252.587 241.493zM415.142 416h270.934c17.92 0 32 14.507 32 32 0 17.92-14.080 32-32 32h-270.934l105.814 105.387c5.973 5.973 9.387 14.507 9.387 22.613 0 8.064-3.413 16.213-9.387 22.613-12.373 12.373-32.853 12.373-45.227 0l-160.854-160c-11.947-11.947-11.947-33.28 0-45.227l160.854-160c12.373-12.373 32.853-12.373 45.227 0 12.373 12.8 12.373 32.853 0 45.653l-105.814 104.96z" />
<glyph unicode="&#xe90c;" glyph-name="Arrow---Right" data-tags="Arrow - Right" d="M462.293 447.718l0.068-15.108c0.516-59.925 4.13-113.391 10.359-147.273 0-0.61 6.797-34.214 11.123-45.397 6.797-16.171 19.085-29.892 34.492-38.588 12.335-6.204 25.271-9.353 38.818-9.353 10.645 0.495 28.207 5.85 40.738 10.342l10.415 3.994c68.979 27.401 200.841 116.932 251.341 171.682l3.725 3.827 16.614 17.933c10.475 13.726 16.013 30.502 16.013 48.55 0 16.166-4.932 32.337-14.801 45.402-2.953 4.233-7.714 9.664-11.947 14.251l-16.175 16.93c-55.659 56.392-176.162 135.491-238.626 161.7 0 0.564-38.818 16.778-57.297 17.389h-2.466c-28.348 0-54.831-16.167-68.378-42.298-3.699-7.144-7.249-21.137-9.946-33.428l-4.855-23.206c-5.538-37.317-9.216-94.562-9.216-157.35zM192.139 512.781c-35.421 0-64.139-28.996-64.139-64.764 0-35.763 28.718-64.764 64.139-64.764l157.834 13.961c27.788 0 50.315 22.699 50.315 50.803 0 28.062-22.528 50.807-50.315 50.807l-157.834 13.956z" />
<glyph unicode="&#xe90d;" glyph-name="Arrow---Right-2" data-tags="Arrow - Right 2" d="M709.581 399.744c-2.411-2.475-11.516-13.056-19.994-21.76-49.711-54.741-179.396-144.341-247.27-171.691-10.308-4.395-36.37-13.696-50.295-14.293-13.343 0-26.062 3.072-38.199 9.301-15.13 8.704-27.267 22.4-33.917 38.571-4.281 11.221-10.932 44.8-10.932 45.397-6.65 36.736-10.308 96.427-10.308 162.389 0 62.848 3.658 120.107 9.103 157.397 0.623 0.597 7.274 42.325 14.548 56.619 13.342 26.112 39.404 42.325 67.294 42.325h2.411c18.164-0.64 56.362-16.853 56.362-17.451 64.218-27.392 190.908-112.597 241.826-169.216 0 0 14.34-14.549 20.574-23.637 9.728-13.056 14.549-29.227 14.549-45.397 0-18.048-5.444-34.859-15.753-48.555z" />
<glyph unicode="&#xe90e;" glyph-name="Arrow---Right-3" data-tags="Arrow - Right 3" d="M518.037 678.831c-9.984-5.386-16.209-15.628-16.209-26.767v-173.459h-342.499c-17.294 0-31.33-13.709-31.33-30.605 0-16.892 14.036-30.601 31.33-30.601h342.499v-173.461c0-11.179 6.225-21.423 16.209-26.769 9.984-5.423 22.182-5.056 31.829 0.858l331.511 204.062c9.109 5.632 14.622 15.386 14.622 25.911 0 10.53-5.513 20.279-14.622 25.911l-331.511 204.063c-5.094 3.101-10.901 4.692-16.708 4.692-5.18 0-10.402-1.306-15.121-3.836z" />
<glyph unicode="&#xe90f;" glyph-name="Arrow---Right-Circle" data-tags="Arrow - Right Circle" d="M938.671 448c0-235.52-191.573-426.667-426.667-426.667l-11.934 0.162c-230.010 6.332-414.732 194.978-414.732 426.505 0 235.093 191.147 426.667 426.666 426.667 235.093 0 426.667-191.573 426.667-426.667zM427.524 618.667c-12.372-12.8-12.372-32.853 0.427-45.227l125.867-125.44-125.867-125.44c-12.799-12.373-12.799-32.853-0.427-45.227 12.8-12.8 32.853-12.8 45.227 0l148.907 148.053c5.973 5.973 9.387 14.080 9.387 22.613s-3.413 16.64-9.387 22.613l-148.907 148.053c-5.973 6.4-14.080 9.387-22.187 9.387-8.533 0-16.64-2.987-23.040-9.387z" />
<glyph unicode="&#xe910;" glyph-name="Arrow---Right-Square" data-tags="Arrow - Right Square" d="M686.076 21.333h-348.588c-150.613 0-252.16 96.896-252.16 241.493v369.92c0 144.64 101.547 241.92 252.16 241.92h348.588c151.040 0 252.587-97.28 252.587-241.92v-369.92c0-144.597-101.547-241.493-252.587-241.493zM608.849 480h-270.934c-17.92 0-32-14.507-32-32 0-17.92 14.080-32 32-32h270.934l-105.813-105.387c-5.973-5.973-9.387-14.507-9.387-22.613 0-8.064 3.413-16.213 9.387-22.613 12.373-12.373 32.853-12.373 45.227 0l160.853 160c11.947 11.947 11.947 33.28 0 45.227l-160.853 160c-12.373 12.373-32.853 12.373-45.227 0-12.373-12.8-12.373-32.853 0-45.653l105.813-104.96z" />
<glyph unicode="&#xe911;" glyph-name="Arrow---Up" data-tags="Arrow - Up" d="M512.282 398.293l15.108 0.068c59.925 0.516 113.391 4.13 147.273 10.359 0.61 0 34.214 6.797 45.397 11.123 16.171 6.797 29.892 19.085 38.588 34.492 6.204 12.335 9.353 25.271 9.353 38.818-0.495 10.645-5.85 28.207-10.342 40.737l-3.994 10.415c-27.401 68.98-116.932 200.841-171.682 251.343l-3.827 3.723-17.933 16.617c-13.726 10.473-30.502 16.012-48.55 16.012-16.166 0-32.337-4.934-45.402-14.801-4.233-2.954-9.664-7.712-14.251-11.948l-16.93-16.174c-56.392-55.657-135.491-176.164-161.7-238.627-0.564 0-16.778-38.817-17.389-57.296v-2.466c0-28.348 16.167-54.831 42.298-68.378 7.144-3.699 21.137-7.249 33.428-9.946l23.206-4.855c37.317-5.538 94.562-9.216 157.35-9.216zM447.219 128.141c0-35.422 28.996-64.141 64.764-64.141 35.763 0 64.764 28.719 64.764 64.141l-13.961 157.833c0 27.785-22.699 50.313-50.803 50.313-28.062 0-50.807-22.528-50.807-50.313l-13.956-157.833z" />
<glyph unicode="&#xe912;" glyph-name="Arrow---Up-2" data-tags="Arrow - Up 2" d="M560.256 645.58c2.475-2.411 13.056-11.513 21.76-19.993 54.741-49.712 144.341-179.396 171.691-247.27 4.395-10.308 13.696-36.369 14.293-50.295 0-13.342-3.072-26.061-9.301-38.199-8.704-15.13-22.4-27.264-38.571-33.916-11.221-4.279-44.8-10.931-45.397-10.931-36.736-6.652-96.427-10.308-162.389-10.308-62.848 0-120.107 3.657-157.397 9.101-0.597 0.627-42.325 7.275-56.619 14.549-26.112 13.342-42.325 39.403-42.325 67.294v2.411c0.64 18.163 16.853 56.363 17.451 56.363 27.392 64.218 112.597 190.909 169.216 241.827 0 0 14.549 14.34 23.637 20.575 13.056 9.726 29.227 14.548 45.397 14.548 18.048 0 34.859-5.445 48.555-15.753z" />
<glyph unicode="&#xe913;" glyph-name="Arrow---Up-3" data-tags="Arrow - Up 3" d="M281.169 454.037c5.386-9.984 15.628-16.209 26.767-16.209h173.459v-342.498c0-17.293 13.709-31.33 30.605-31.33 16.892 0 30.601 14.037 30.601 31.33v342.498h173.461c11.179 0 21.423 6.225 26.769 16.209 5.423 9.984 5.056 22.182-0.858 31.829l-204.062 331.513c-5.632 9.106-15.386 14.621-25.911 14.621-10.53 0-20.279-5.514-25.911-14.621l-204.063-331.513c-3.101-5.094-4.692-10.901-4.692-16.708 0-5.18 1.306-10.402 3.836-15.121z" />
<glyph unicode="&#xe914;" glyph-name="Arrow---Up-Circle" data-tags="Arrow - Up Circle" d="M512 874.667c235.52 0 426.667-191.573 426.667-426.667l-0.162-11.938c-6.332-230.007-194.978-414.729-426.505-414.729-235.093 0-426.667 191.147-426.667 426.667 0 235.093 191.573 426.667 426.667 426.667zM341.333 363.52c12.8-12.373 32.853-12.373 45.227 0.427l125.44 125.867 125.44-125.867c12.373-12.8 32.853-12.8 45.227-0.427 12.8 12.8 12.8 32.853 0 45.227l-148.053 148.907c-5.973 5.973-14.080 9.387-22.613 9.387s-16.64-3.413-22.613-9.387l-148.053-148.907c-6.4-5.973-9.387-14.080-9.387-22.187 0-8.533 2.987-16.64 9.387-23.040z" />
<glyph unicode="&#xe915;" glyph-name="Arrow---Up-Square" data-tags="Arrow - Up Square" d="M938.662 622.080v-348.587c0-150.613-96.896-252.16-241.493-252.16h-369.921c-144.64 0-241.92 101.547-241.92 252.16v348.587c0 151.040 97.28 252.587 241.92 252.587h369.921c144.597 0 241.493-101.547 241.493-252.587zM479.996 544.853v-270.933c0-17.92 14.507-32 32-32 17.92 0 32 14.080 32 32v270.933l105.387-105.813c5.973-5.973 14.507-9.387 22.613-9.387 8.064 0 16.213 3.413 22.613 9.387 12.373 12.373 12.373 32.853 0 45.227l-160 160.853c-11.947 11.947-33.28 11.947-45.227 0l-160.001-160.853c-12.373-12.373-12.373-32.853 0-45.227 12.8-12.373 32.853-12.373 45.653 0l104.961 105.813z" />
<glyph unicode="&#xe916;" glyph-name="Bag" data-tags="Bag" d="M891.733 264.533l-34.133 264.533c-17.067 93.867-72.533 132.267-128 132.267h-8.533c0 4.267 0 4.267 0 8.533v0c0 115.2-93.867 204.8-209.067 204.8s-209.067-89.6-213.333-204.8c0 0 0-4.267 0-8.533h-4.267c-55.467 0-115.2-34.133-128-132.267l-34.133-264.533c-25.6-196.267 72.533-243.2 204.8-243.2h354.133c128 0 226.133 68.267 200.533 243.2zM362.667 669.867c0 81.067 68.267 149.333 149.333 149.333s149.333-68.267 149.333-149.333c0-4.267 0-8.533 0-8.533h-298.667c0 4.267 0 8.533 0 8.533zM388.267 443.733c-21.333 0-38.4 17.067-38.4 38.4s17.067 38.4 38.4 38.4 38.4-17.067 38.4-38.4c0-21.333-17.067-38.4-38.4-38.4zM635.733 443.733c-21.333 0-38.4 17.067-38.4 38.4s17.067 38.4 38.4 38.4 38.4-17.067 38.4-38.4c0-21.333-17.067-38.4-38.4-38.4z" />
<glyph unicode="&#xe917;" glyph-name="Bag-2" data-tags="Bag 2" d="M708.267 682.667h-8.533c0 106.667-85.333 192-187.733 192-51.2 0-98.133-21.333-132.267-55.467s-55.467-85.333-55.467-136.533h-8.533c-115.2 0-209.067-98.133-209.067-213.333v-234.667c0-119.467 93.867-213.333 209.067-213.333h392.533c115.2 0 209.067 93.867 209.067 213.333v234.667c0 119.467-93.867 213.333-209.067 213.333zM379.733 550.4c0-17.067-12.8-34.133-29.867-34.133s-29.867 12.8-29.867 34.133v51.2c0 17.067 12.8 34.133 29.867 34.133s29.867-12.8 29.867-34.133v-51.2zM384 682.667c0 34.133 12.8 64 38.4 89.6s55.467 38.4 89.6 38.4c68.267 0 123.733-55.467 123.733-128h-251.733zM699.733 550.4c0-17.067-12.8-34.133-29.867-34.133s-29.867 12.8-29.867 34.133v51.2c0 17.067 12.8 34.133 29.867 34.133s29.867-12.8 29.867-34.133v-51.2z" />
<glyph unicode="&#xe918;" glyph-name="Bookmark" data-tags="Bookmark" d="M379.733 874.667h263.253c115.627 0 209.067-45.653 210.347-161.707v-647.68c0-7.253-1.707-14.507-5.12-20.907-5.547-10.24-14.933-17.92-26.453-21.333-11.093-3.413-23.467-1.707-33.707 4.267l-276.48 138.24-276.907-138.24c-6.357-3.371-13.653-5.547-20.907-5.547-23.893 0-43.093 19.627-43.093 43.52v647.68c0 116.053 93.867 161.707 209.067 161.707zM350.72 549.547h321.28c18.347 0 33.28 14.976 33.28 33.707 0 18.773-14.933 33.707-33.28 33.707h-321.28c-18.347 0-33.28-14.933-33.28-33.707 0-18.731 14.933-33.707 33.28-33.707z" />
<glyph unicode="&#xe919;" glyph-name="Buy" data-tags="Buy" d="M602.509 480.721h118.093c17.907 0 31.979 14.805 31.979 32.657 0 18.287-14.071 32.655-31.979 32.655h-118.093c-17.907 0-31.974-14.368-31.974-32.655 0-17.852 14.067-32.657 31.974-32.657zM860.868 707.094c26.005 0 43.059-9.144 60.113-29.173s20.036-48.767 16.201-74.848l-40.503-285.632c-7.671-54.908-53.717-95.356-107.861-95.356h-465.131c-56.703 0-103.599 44.369-108.289 101.841l-39.223 474.65-64.376 11.321c-17.053 3.048-28.991 20.029-26.007 37.446 2.985 17.808 19.612 29.608 37.091 26.952l101.681-15.631c14.495-2.656 25.154-14.804 26.433-29.609l8.1-97.533c1.279-13.977 12.364-24.427 26.006-24.427h575.766zM316.856 153.263c-35.812 0-64.803-29.606-64.803-66.18 0-36.143 28.991-65.749 64.803-65.749 35.386 0 64.377 29.606 64.377 65.749 0 36.574-28.991 66.18-64.377 66.18zM796.484 153.263c-35.814 0-64.806-29.606-64.806-66.18 0-36.143 28.992-65.749 64.806-65.749 35.383 0 64.375 29.606 64.375 65.749 0 36.574-28.992 66.18-64.375 66.18z" />
<glyph unicode="&#xe91a;" glyph-name="Calendar" data-tags="Calendar" d="M700.198 841.872l0.043-31.984c117.53-9.211 195.17-89.299 195.294-212.118l0.465-359.499c0.166-133.909-83.959-216.299-218.803-216.512l-329.383-0.427c-134.003-0.171-219.181 84.181-219.35 218.475l-0.463 355.276c-0.169 123.629 74.732 203.503 192.263 214.292l-0.042 31.984c-0.042 18.764 13.859 32.879 32.395 32.879 18.535 0.043 32.437-14.030 32.479-32.794l0.042-29.852 250.229 0.341-0.043 29.852c-0.043 18.764 13.858 32.837 32.397 32.88 18.112 0.043 32.435-14.031 32.478-32.794zM192.916 581.906l637.786 0.853v14.926c-1.809 91.687-47.812 139.791-130.381 146.956l0.043-32.837c0-18.338-14.281-32.879-32.393-32.879-18.534-0.043-32.482 14.457-32.482 32.794l-0.038 34.543-250.23-0.341 0.042-34.5c0-18.38-13.859-32.879-32.395-32.879-18.535-0.043-32.479 14.414-32.479 32.794l-0.042 32.837c-82.146-8.23-127.6-56.505-127.473-149.003l0.042-13.263zM650.236 388.083v-0.469c0.422-19.618 16.431-34.5 35.849-34.074 18.957 0.469 34.082 16.717 33.66 36.335-0.883 18.765-16.094 34.074-35.008 34.031-19.375-0.427-34.543-16.205-34.5-35.823zM685.030 196.608c-19.375 0.427-35.004 16.589-35.046 36.203-0.422 19.618 15.121 35.866 34.5 36.335h0.422c19.797 0 35.849-16.162 35.849-36.207 0.043-20.041-15.966-36.288-35.725-36.331zM476.676 387.401c0.845-19.618 16.892-34.927 36.271-34.074 18.957 0.896 34.082 17.101 33.237 36.719-0.465 19.191-16.051 34.116-35.008 34.074-19.375-0.853-34.543-17.101-34.5-36.719zM513.118 198.524c-19.379-0.853-35.388 14.46-36.271 34.074 0 19.618 15.121 35.823 34.5 36.719 18.957 0.043 34.586-14.882 35.008-34.031 0.883-19.661-14.281-35.866-33.237-36.762zM303.118 385.907c0.843-19.614 16.893-34.97 36.271-34.074 18.957 0.853 34.080 17.101 33.195 36.719-0.421 19.191-16.008 34.116-35.007 34.074-19.378-0.853-34.501-17.101-34.459-36.719zM339.557 198.31c-19.378-0.896-35.386 14.46-36.271 34.074-0.042 19.618 15.123 35.866 34.501 36.719 18.957 0.043 34.586-14.882 35.007-34.074 0.884-19.618-14.239-35.866-33.237-36.719z" />
<glyph unicode="&#xe91b;" glyph-name="Call" data-tags="Call" d="M775.108 346.466c-28.659 6.165-51.332-7.142-71.407-18.765-20.561-11.972-59.652-43.686-82.061-35.571-114.726 47.236-222.627 147.652-269.336 262.839-8.232 22.886 23.333 62.228 35.219 83.029 11.534 20.137 24.565 43.023 18.622 71.897-5.371 25.947-74.84 114.343-99.405 138.515-16.201 15.967-32.798 24.749-49.835 26.169-64.055 2.75-135.593-82.719-148.14-103.166-31.433-43.599-31.257-101.614 0.528-171.958 76.601-188.947 366.319-474.092 555.973-553.572 34.999-16.367 67.004-24.572 95.753-24.572 28.13 0 53.18 7.851 74.709 23.415 16.243 9.361 105.216 84.45 102.882 150.225-1.408 16.768-10.167 33.532-25.929 49.766-23.996 24.794-111.821 96.333-137.574 101.747z" />
<glyph unicode="&#xe91c;" glyph-name="Call-Missed" data-tags="Call Missed" d="M927.599 810.446l-102.554-102.935 102.554-102.935c7.147-7.177 11.068-16.687 11.068-26.761s-3.921-19.584-11.068-26.761c-7.108-7.133-16.542-11.067-26.62-11.067s-19.511 3.934-26.658 11.067l-102.554 102.979-102.592-102.979c-14.255-14.266-39.023-14.266-53.278 0-7.108 7.177-11.025 16.687-11.025 26.761s3.917 19.584 11.025 26.761l102.549 102.935-102.549 102.935c-7.108 7.177-11.025 16.687-11.025 26.761s3.917 19.584 11.025 26.761c14.255 14.266 39.023 14.266 53.278 0l102.592-102.979 102.554 102.979c14.255 14.266 39.019 14.266 53.278 0 7.147-7.177 11.068-16.687 11.068-26.761s-3.921-19.584-11.068-26.761zM690.769 320.247c19.529 11.26 41.579 23.983 69.397 18.061 25.195-5.316 111.121-75.051 134.596-99.217 15.462-15.821 23.987-32.162 25.365-48.503 2.283-64.115-84.762-137.306-100.655-146.428-21.060-15.177-45.568-22.827-73.088-22.827-28.126 0-59.439 8-93.679 23.949-185.549 77.474-468.994 355.413-543.936 539.622-31.054 68.523-31.269 125.070-0.517 167.567 12.275 19.93 82.307 103.238 144.932 100.601 16.668-1.426 32.906-9.987 48.756-25.55 24.033-23.561 91.998-109.722 97.253-135.013 5.815-28.101-6.934-50.452-18.219-70.079-2.411-4.194-5.648-9.166-9.195-14.612-13.564-20.83-31.646-48.6-25.262-66.318 45.698-112.23 151.261-210.15 263.504-256.149 17.387-6.31 45.043 11.831 65.775 25.429 5.41 3.546 10.347 6.784 14.507 9.199l0.465 0.269z" />
<glyph unicode="&#xe91d;" glyph-name="Call-Silent" data-tags="Call Silent" d="M419.284 499.14l-114.607-117.521c-74.431 84.561-135.752 172.163-164.932 245.451-30.449 68.519-30.872 125.328-0.423 167.827 11.841 19.948 80.774 103.645 142.096 101.043 16.493-1.301 32.563-9.974 47.788-25.586 23.683-23.852 90.501-110.15 95.576-135.302 5.793-27.997-6.221-49.77-17.040-69.378l-0.722-1.309c-2.284-3.989-5.328-8.724-8.673-13.927-13.385-20.816-31.587-49.126-25.159-67.168 11.841-29.055 27.489-57.242 46.097-84.13zM936.495 231.573c2.116-64.614-83.311-137.903-98.961-147.008-20.719-15.181-44.826-22.985-71.893-22.985-27.486 0-58.359 7.804-91.767 23.851-79.083 33.826-176.768 105.809-267.69 191.236l-259.232-265.826c-7.189-6.938-16.070-10.842-25.374-10.842s-18.185 3.904-25.797 10.842c-11.841 12.578-13.533 31.223-5.498 45.099l1.269 1.737c0.846 1.344 1.691 2.603 2.96 3.904l766.301 786.228c6.345 6.939 15.646 11.319 25.374 11.319s19.029-4.38 25.796-11.319c13.956-14.744 13.956-37.728 0-52.473v-0.434l-392.047-401.613c35.102-27.712 73.161-50.697 112.068-66.786 16.964-6.447 43.605 11.494 63.881 25.143 5.504 3.703 10.534 7.095 14.78 9.596l1.289 0.747c19.119 11.093 40.341 23.403 67.221 17.468 24.951-5.205 109.111-75.025 132.369-99.311 15.223-16.047 23.258-32.525 24.951-48.572z" />
<glyph unicode="&#xe91e;" glyph-name="Calling" data-tags="Calling" d="M612.514 874.328c-9.515 1.364-19.076-1.45-26.684-7.504-7.817-6.14-12.706-15.008-13.769-24.943-2.249-20.082 12.241-38.246 32.294-40.506 138.313-15.435 245.815-123.179 261.367-261.921 2.082-18.588 17.677-32.617 36.288-32.617 1.404 0 2.765 0.085 4.164 0.256 9.732 1.067 18.398 5.884 24.521 13.559 6.076 7.671 8.836 17.224 7.731 26.988-19.375 173.108-153.353 307.458-325.914 326.688zM615.172 725.763c-20.314 3.752-38.967-9.21-42.833-29.036s9.135-39.184 28.894-43.064c59.49-11.597 105.425-57.646 117.065-117.338v-0.043c3.315-17.182 18.445-29.675 35.866-29.675 2.338 0 4.672 0.213 7.053 0.64 19.759 3.964 32.759 23.279 28.894 43.148-17.378 89.155-86.003 158.014-174.938 175.368zM682.671 316.139c19.26 11.106 41.020 23.65 68.463 17.813 24.858-5.244 109.585-74.018 132.787-97.856 15.211-15.603 23.667-31.718 24.986-47.838 2.291-63.232-83.627-135.415-99.264-144.414-20.779-14.963-44.954-22.511-72.107-22.511-27.746 0-58.684 7.889-92.42 23.62-183.053 76.407-462.693 350.524-536.629 532.158-30.679 67.623-30.892 123.393-0.51 165.305 12.11 19.656 81.159 101.818 142.985 99.217 16.444-1.407 32.421-9.85 48.101-25.199 23.71-23.237 90.763-108.214 95.947-133.156 5.736-27.715-6.841-49.758-18.017-69.115-2.383-4.161-5.595-9.1-9.113-14.509-13.353-20.532-31.127-47.861-24.838-65.308 45.084-110.688 149.229-207.259 259.966-252.627 17.122-6.225 44.437 11.678 64.905 25.088 5.329 3.494 10.197 6.686 14.298 9.067l0.461 0.265z" />
<glyph unicode="&#xe91f;" glyph-name="Camera" data-tags="Camera" d="M744.107 693.914l-4.267 9.376c-1.971 4.156-3.994 8.424-6.029 12.726-9.869 20.842-20.105 42.467-26.825 55.891-19.627 38.358-53.333 59.667-94.72 60.093h-200.96c-41.387-0.426-74.667-21.736-94.293-60.093-7.482-14.948-19.558-40.383-30.473-63.374-1.533-3.229-3.043-6.409-4.514-9.505l-2.56-5.114c-1.28-3.41-4.693-5.114-8.107-5.114-102.827 0-186.027-83.534-186.027-185.819v-253.158c0-102.289 83.2-185.822 186.027-185.822h481.28c102.4 0 186.027 83.533 186.027 185.822v253.158c0 102.285-83.627 185.819-186.027 185.819-3.84 0-6.827 2.131-8.533 5.114zM712.96 530.257c0 21.308 17.067 38.782 38.4 38.782s38.827-17.474 38.827-38.782c0-21.312-17.493-38.357-38.827-38.357s-38.4 17.045-38.4 38.357zM438.187 464.196c-19.627-19.605-30.293-45.602-29.867-72.452v-0.427c0-27.703 10.667-53.7 30.293-73.306s45.653-30.259 73.387-30.259c57.173 0 103.253 46.455 103.68 103.565 0 27.703-10.667 53.7-30.293 73.306s-45.653 30.259-73.387 30.259c-27.733 0-53.76-10.654-73.813-30.686zM630.187 272.836c-30.293-30.263-72.107-49.015-118.187-49.015-44.8 0-86.613 17.476-118.613 49.015-31.573 31.962-49.067 73.728-49.067 118.481-0.427 44.322 17.067 86.089 48.64 118.054 32 31.965 74.24 49.438 119.040 49.438s87.040-17.474 118.613-49.012c31.573-31.966 49.067-74.159 49.067-118.481-0.427-46.455-19.2-88.222-49.493-118.481z" />
<glyph unicode="&#xe920;" glyph-name="Category" data-tags="Category" d="M193.702 874.667h144.213c60.16 0 108.374-49.067 108.374-109.269v-145.451c0-60.587-48.214-109.227-108.374-109.227h-144.213c-59.733 0-108.373 48.64-108.373 109.227v145.451c0 60.203 48.64 109.269 108.373 109.269zM193.702 385.293h144.213c60.16 0 108.374-48.683 108.374-109.269v-145.451c0-60.16-48.214-109.227-108.374-109.227h-144.213c-59.733 0-108.373 49.067-108.373 109.227v145.451c0 60.587 48.64 109.269 108.373 109.269zM830.293 874.667h-144.213c-60.16 0-108.373-49.067-108.373-109.269v-145.451c0-60.587 48.213-109.227 108.373-109.227h144.213c59.733 0 108.373 48.64 108.373 109.227v145.451c0 60.203-48.64 109.269-108.373 109.269zM686.080 385.293h144.213c59.733 0 108.373-48.683 108.373-109.269v-145.451c0-60.16-48.64-109.227-108.373-109.227h-144.213c-60.16 0-108.373 49.067-108.373 109.227v145.451c0 60.587 48.213 109.269 108.373 109.269z" />
<glyph unicode="&#xe921;" glyph-name="Chart" data-tags="Chart" d="M712.533 874.667h-401.067c-145.067 0-226.133-81.067-226.133-226.133v-396.8c0-149.333 81.067-230.4 226.133-230.4h396.8c145.067 0 226.133 81.067 226.133 226.133v401.067c4.267 145.067-76.8 226.133-221.867 226.133zM349.867 230.4c0-17.067-17.067-34.133-34.133-34.133s-34.133 12.8-34.133 34.133v294.4c0 12.8 4.267 25.6 17.067 34.133s25.6 8.533 38.4 0c12.8-8.533 17.067-21.333 17.067-34.133v-294.4zM550.4 230.4c0-17.067-17.067-34.133-34.133-34.133s-34.133 12.8-34.133 34.133v435.2c0 12.8 4.267 25.6 17.067 34.133s25.6 8.533 38.4 0c12.8-8.533 17.067-21.333 17.067-34.133v-435.2zM746.667 230.4c-4.267-17.067-17.067-34.133-34.133-34.133s-34.133 12.8-34.133 34.133v140.8c0 12.8 4.267 25.6 17.067 34.133s25.6 8.533 38.4 0c12.8-8.533 17.067-21.333 17.067-34.133v-140.8z" />
<glyph unicode="&#xe922;" glyph-name="Chat" data-tags="Chat" d="M512 874.667c-247.467 0-426.667-200.533-426.667-426.667 0-72.533 21.333-145.067 55.467-213.333 8.533-12.8 8.533-25.6 4.267-38.4l-29.867-93.867c-8.533-21.333 12.8-38.4 34.133-34.133l85.333 25.6c21.333 8.533 42.667-4.267 64-17.067 64-38.4 145.067-55.467 213.333-55.467 213.333 0 426.667 162.133 426.667 426.667 0 226.133-183.467 426.667-426.667 426.667zM315.733 392.533c-29.867 0-55.467 25.6-55.467 55.467s25.6 55.467 55.467 55.467 55.467-25.6 55.467-55.467c0-29.867-25.6-55.467-55.467-55.467zM512 392.533c-29.867 0-55.467 25.6-55.467 55.467s25.6 55.467 55.467 55.467c29.867 0 55.467-25.6 55.467-55.467s-25.6-55.467-55.467-55.467zM708.267 392.533c-29.867 0-55.467 25.6-55.467 55.467s25.6 55.467 55.467 55.467c29.867 0 55.467-25.6 55.467-55.467s-25.6-55.467-55.467-55.467z" />
<glyph unicode="&#xe923;" glyph-name="Close-Square" data-tags="Close Square" d="M327.246 874.7h369.919c144.64 0 241.493-101.547 241.493-252.587v-348.629c0-150.613-96.853-252.117-241.493-252.117h-369.919c-144.64 0-241.92 101.504-241.92 252.117v348.629c0 151.040 97.28 252.587 241.92 252.587zM640.418 320.034c14.507 14.464 14.507 37.931 0 52.437l-75.947 75.947 75.947 75.989c14.507 14.464 14.507 38.357 0 52.864-14.507 14.549-37.973 14.549-52.907 0l-75.52-75.904-75.947 75.904c-14.932 14.549-38.399 14.549-52.906 0-14.507-14.507-14.507-38.4 0-52.864l75.946-75.989-75.946-75.52c-14.507-14.933-14.507-38.4 0-52.864 7.253-7.253 17.067-11.136 26.453-11.136 9.813 0 19.199 3.883 26.452 11.136l75.947 75.477 75.947-75.477c7.253-7.723 16.64-11.136 26.027-11.136 9.813 0 19.2 3.883 26.453 11.136z" />
<glyph unicode="&#xe924;" glyph-name="Danger" data-tags="Danger" d="M925.867 230.4l-307.2 541.867c-34.133 55.467-106.667 76.8-162.133 46.933-21.333-12.8-38.4-29.867-51.2-46.933l-311.467-541.867c-25.6-59.733 4.267-132.267 68.267-157.867 12.8-4.267 25.6-8.533 38.4-8.533h622.933c29.867 0 59.733 17.067 81.067 38.4 21.333 25.6 34.133 55.467 29.867 85.333 4.267 17.067 0 29.867-8.533 42.667zM512 234.667c-21.333 0-38.4 17.067-38.4 38.4s17.067 38.4 38.4 38.4c21.333 0 38.4-17.067 38.4-38.4s-17.067-38.4-38.4-38.4zM550.4 413.867c0-21.333-17.067-38.4-38.4-38.4s-38.4 17.067-38.4 38.4v119.467c0 21.333 17.067 38.4 38.4 38.4s38.4-17.067 38.4-38.4v-119.467z" />
<glyph unicode="&#xe925;" glyph-name="Delete" data-tags="Delete" d="M865.583 736.3c16.597 0 30.417-13.781 30.417-31.317v-16.213c0-17.109-13.82-31.317-30.417-31.317h-707.125c-16.64 0-30.458 14.208-30.458 31.317v16.213c0 17.536 13.818 31.317 30.458 31.317h124.404c25.271 0 47.263 17.963 52.948 43.306l6.515 29.099c10.125 39.637 43.446 65.962 81.58 65.962h176.189c37.722 0 71.415-26.325 81.165-63.872l6.972-31.146c5.645-25.386 27.635-43.349 52.949-43.349h124.403zM802.381 143.616c12.988 121.041 35.729 408.614 35.729 411.514 0.828 8.789-2.035 17.109-7.718 23.808-6.101 6.272-13.82 9.984-22.323 9.984h-591.811c-8.548 0-16.681-3.712-22.324-9.984-5.726-6.699-8.548-15.019-8.133-23.808 0.076-0.533 0.892-10.662 2.256-27.596 6.060-75.234 22.938-284.77 33.845-383.919 7.718-73.045 55.645-118.955 125.068-120.619 53.571-1.237 108.759-1.664 165.194-1.664 53.154 0 107.14 0.427 162.372 1.664 71.829 1.237 119.714 46.336 127.846 120.619z" />
<glyph unicode="&#xe926;" glyph-name="Discount" data-tags="Discount" d="M900.267 537.6l-29.867 29.867c-12.8 12.8-17.067 29.867-17.067 46.933v42.667c0 72.533-59.733 128-128 128h-42.667c-17.067 0-34.133 8.533-46.933 17.067l-29.867 29.867c-51.2 51.2-132.267 51.2-183.467 0l-34.133-25.6c-8.533-12.8-25.6-17.067-42.667-17.067h-42.667c-72.533 0-128-55.467-128-128v-42.667c0-17.067-8.533-34.133-17.067-46.933l-34.133-34.133c-51.2-51.2-51.2-132.267 0-183.467l29.867-29.867c12.8-8.533 17.067-25.6 17.067-42.667v-42.667c0-72.533 59.733-128 128-128h42.667c17.067 0 34.133-8.533 46.933-17.067l29.867-29.867c25.6-25.6 59.733-38.4 89.6-38.4 34.133 0 64 12.8 89.6 38.4l29.867 29.867c12.8 12.8 29.867 17.067 46.933 17.067h42.667c72.533 0 128 59.733 128 128v42.667c0 17.067 8.533 34.133 17.067 46.933l29.867 29.867c0 0 0 0 0 0s0 0 0 0c25.6 25.6 38.4 55.467 38.4 89.6 8.533 34.133-4.267 68.267-29.867 89.6zM401.067 593.067c21.333 0 38.4-17.067 38.4-38.4s-17.067-38.4-38.4-38.4c-21.333 0-38.4 17.067-38.4 38.4 4.267 25.6 21.333 38.4 38.4 38.4zM426.667 311.467c-8.533-8.533-17.067-12.8-25.6-12.8s-21.333 4.267-25.6 12.8c-12.8 12.8-12.8 38.4 0 51.2l221.867 221.867c12.8 12.8 38.4 12.8 51.2 0s12.8-38.4 0-51.2l-221.867-221.867zM622.933 302.933c-21.333 0-38.4 17.067-38.4 38.4s17.067 38.4 38.4 38.4c21.333 0 38.4-17.067 38.4-38.4-4.267-25.6-17.067-38.4-38.4-38.4z" />
<glyph unicode="&#xe927;" glyph-name="Discovery" data-tags="Discovery" d="M85.329 447.996c0 235.52 190.72 426.666 426.667 426.666 235.52 0 426.667-191.147 426.667-426.666 0-235.947-191.147-426.667-426.667-426.667-235.947 0-426.667 190.72-426.667 426.667zM607.142 369.916l69.12 218.453c4.693 14.933-8.96 29.013-23.893 24.32l-218.453-68.267c-8.96-2.987-16.213-9.813-18.773-18.773l-68.267-218.88c-4.693-14.507 9.387-28.587 23.893-23.893l217.6 68.267c8.96 2.56 16.213 9.813 18.773 18.773z" />
<glyph unicode="&#xe928;" glyph-name="Document" data-tags="Document" d="M691.2 874.667h-358.4c-128 0-204.8-76.8-204.8-204.8v-439.467c0-136.533 76.8-209.067 204.8-209.067h358.4c132.267 0 204.8 72.533 204.8 204.8v443.733c0 128-72.533 204.8-204.8 204.8zM345.6 674.133v0h128c17.067 0 34.133-12.8 34.133-34.133 0-17.067-12.8-34.133-34.133-34.133h-128c-17.067 0-34.133 12.8-34.133 34.133s12.8 34.133 34.133 34.133zM678.4 221.867h-332.8c-12.8 0-25.6 4.267-34.133 17.067s-8.533 25.6 0 34.133c8.533 12.8 21.333 17.067 34.133 17.067h332.8c17.067 0 29.867-17.067 29.867-34.133s-12.8-34.133-29.867-34.133zM678.4 418.133h-332.8c-17.067 0-34.133 12.8-34.133 34.133s12.8 34.133 34.133 34.133h332.8c17.067 0 34.133-17.067 34.133-34.133s-17.067-34.133-34.133-34.133z" />
<glyph unicode="&#xe929;" glyph-name="Download" data-tags="Download" d="M479.151 648.938v171.052c0 18.188 14.507 33.344 32.853 33.344 16.427 0 30.345-12.736 32.55-28.867l0.303-4.477v-171.052l203.942-0.013c101.547 0 184.973-83.155 189.658-186.862l0.209-9.203v-215.010c0-104.431-80.525-190.157-180.565-194.97l-8.875-0.213h-474.453c-101.547 0-184.572 82.739-189.233 186.825l-0.207 9.242v214.566c0 104.435 80.124 190.575 180.138 195.411l8.875 0.214h204.8v-273.168l-68.267 70.494c-12.8 13.218-33.707 13.218-46.507 0-6.4-6.609-9.387-15.42-9.387-24.23 0-6.699 1.911-13.679 5.953-19.584l3.434-4.211 124.16-128.653c5.973-6.609 14.507-10.133 23.467-10.133 7.113 0 14.221 2.449 19.853 7.087l3.187 3.046 124.16 128.653c12.8 13.218 12.8 34.807 0 48.026-11.635 12.015-29.973 13.107-42.829 3.277l-3.678-3.277-67.84-70.494v273.168l-65.702 0.013z" />
<glyph unicode="&#xe92a;" glyph-name="Edit" data-tags="Edit" d="M400.060 105.476l374.886 484.798c20.373 26.144 27.618 56.369 20.826 87.145-5.884 27.978-23.091 54.58-48.896 74.761l-62.933 49.993c-54.784 43.572-122.701 38.985-161.638-11.008l-42.108-54.626c-5.431-6.834-4.075-16.924 2.718-22.428 0 0 106.398-85.31 108.663-87.145 7.245-6.88 12.676-16.053 14.037-27.060 2.261-21.557-12.681-41.738-34.863-44.49-10.415-1.376-20.378 1.835-27.618 7.797l-111.834 88.979c-5.433 4.082-13.583 3.21-18.111-2.293l-265.77-343.993c-17.205-21.555-23.091-49.532-17.205-76.595l33.957-147.226c1.811-7.799 8.602-13.303 16.752-13.303l149.411 1.835c27.165 0.461 52.52 12.843 69.725 34.859zM609.267 151.326h243.631c23.77 0 43.102-19.584 43.102-43.661 0-24.128-19.332-43.665-43.102-43.665h-243.631c-23.77 0-43.102 19.537-43.102 43.665 0 24.077 19.332 43.661 43.102 43.661z" />
<glyph unicode="&#xe92b;" glyph-name="Edit-Square" data-tags="Edit Square" d="M711.053 874.225c61.376 3.836 121.903-17.475 167.509-59.245 41.771-45.606 63.078-106.13 59.669-167.933v-398.096c3.836-61.803-17.899-122.325-59.243-167.932-45.611-41.771-106.56-63.083-167.936-59.247h-398.098c-61.803-3.836-122.328 17.476-167.934 59.247-41.771 45.606-63.082 106.129-59.246 167.932v398.096c-3.836 61.803 17.475 122.327 59.246 167.933 45.606 41.77 106.131 63.081 167.934 59.245h398.098zM468.527 241.28l286.852 287.701c26.001 26.428 26.001 69.050 0 95.050l-55.407 55.409c-26.428 26.426-69.052 26.426-95.475 0l-28.561-28.983c-4.262-4.262-4.262-11.508 0-15.77 0 0 67.772-67.343 69.052-69.048 4.689-5.115 7.671-11.934 7.671-19.607 0-15.344-12.361-28.131-28.13-28.131-7.249 0-14.067 2.982-18.756 7.671l-71.181 70.754c-3.409 3.41-9.374 3.41-12.787 0l-203.309-203.311c-14.066-14.063-22.164-32.819-22.59-52.851l-2.557-101.013c0-5.542 1.705-10.658 5.541-14.494s8.951-5.965 14.492-5.965h100.164c20.461 0 40.066 8.098 54.982 22.588z" />
<glyph unicode="&#xe92c;" glyph-name="Filter" data-tags="Filter" d="M378.784 687.848c0-79.645-65.659-144.198-146.725-144.198-81.019 0-146.725 64.554-146.725 144.198 0 79.598 65.706 144.152 146.725 144.152 81.066 0 146.725-64.554 146.725-144.152zM874.381 751.005c35.46 0 64.286-28.318 64.286-63.156 0-34.885-28.826-63.203-64.286-63.203h-280.555c-35.507 0-64.329 28.318-64.329 63.203 0 34.839 28.821 63.156 64.329 63.156h280.555zM149.665 279.125h280.556c35.507 0 64.333-28.318 64.333-63.202 0-34.837-28.826-63.202-64.333-63.202h-280.556c-35.508 0-64.332 28.365-64.332 63.202 0 34.884 28.823 63.202 64.332 63.202zM791.94 73.481c81.067 0 146.726 64.555 146.726 144.154 0 79.646-65.66 144.196-146.726 144.196-81.015 0-146.722-64.55-146.722-144.196 0-79.599 65.707-144.154 146.722-144.154z" />
<glyph unicode="&#xe92d;" glyph-name="Filter-2" data-tags="Filter 2" d="M176.136 874.667h671.727c50.167 0 90.803-41.858 90.803-93.536v-65.344c0-25.070-9.796-49.144-27.191-66.702l-277.547-280.743c-4.791-4.89-11.29-7.603-18.014-7.556l-232.387 0.721c-7.072 0-13.794 3.034-18.626 8.329l-255.055 280.517c-15.771 17.332-24.513 40.229-24.513 63.986v66.747c0 51.678 40.635 93.582 90.803 93.582zM395.951 284.838l207.13-0.636c12.915-0.047 23.369-10.859 23.369-24.119v-116.523c0-13.303-7.556-25.344-19.328-30.908l-188.019-88.286c-4.393-2.039-9.049-3.034-13.706-3.034-6.194 0-12.388 1.809-17.792 5.385-9.445 6.246-15.156 17.015-15.156 28.553v205.449c0 13.346 10.543 24.162 23.502 24.119z" />
<glyph unicode="&#xe92e;" glyph-name="Folder" data-tags="Folder" d="M573.862 751.778h130.987c157.44 0 234.24-84.053 233.813-256.427v-207.787c0-164.693-101.547-266.24-266.667-266.24h-320.427c-164.267 0-266.24 101.547-266.24 266.667v320.427c0 176.64 78.507 266.24 233.387 266.24h67.413c39.723 0.427 76.8-17.92 101.12-49.067l37.547-49.92c11.947-14.933 29.867-23.893 49.067-23.893zM314.449 307.618h395.093c17.493 0 31.573 14.507 31.573 32 0 17.92-14.080 32-31.573 32h-395.093c-17.92 0-32-14.080-32-32 0-17.493 14.080-32 32-32z" />
<glyph unicode="&#xe92f;" glyph-name="Game" data-tags="Game" d="M686.933 699.733c-12.8 0-25.6 0-38.4 0-25.6 0-51.2 0-81.067 0v8.533c0 59.733-51.2 110.933-115.2 110.933h-42.667c-12.8 4.267-21.333 12.8-21.333 25.6 0 17.067-12.8 29.867-29.867 29.867s-34.133-12.8-34.133-29.867c0-46.933 38.4-85.333 85.333-85.333h42.667c29.867 0 51.2-21.333 51.2-51.2v-8.533c-55.467 0-110.933 0-166.4 0-145.067 0-251.733-102.4-251.733-247.467v-183.467c0-140.8 106.667-247.467 251.733-247.467 59.733 0 115.2 0 174.933 0s115.2 0 174.933 0c145.067 0 251.733 102.4 251.733 247.467v183.467c0 145.067-106.667 247.467-251.733 247.467zM465.067 332.8h-42.667v-42.667c0-17.067-12.8-29.867-29.867-29.867s-29.867 12.8-29.867 29.867v42.667h-42.667c-17.067 0-29.867 12.8-29.867 29.867s12.8 29.867 29.867 29.867h42.667v42.667c0 17.067 12.8 29.867 29.867 29.867s29.867-12.8 29.867-29.867v-42.667h42.667c17.067 0 29.867-12.8 29.867-29.867s-12.8-29.867-29.867-29.867zM644.267 401.067v0c-21.333 0-34.133 12.8-34.133 29.867s12.8 29.867 29.867 29.867h4.267c17.067 0 29.867-12.8 29.867-29.867 4.267-17.067-12.8-29.867-29.867-29.867zM716.8 260.267v0c-21.333 0-34.133 12.8-34.133 29.867s12.8 29.867 29.867 29.867h4.267c17.067 0 29.867-12.8 29.867-29.867s-12.8-29.867-29.867-29.867z" />
<glyph unicode="&#xe930;" glyph-name="Graph" data-tags="Graph" d="M525.926 865.721c6.814 6.116 15.825 9.321 25.050 8.911 195.021-5.838 358.012-147.412 387.55-336.632 0.188-1.13 0.188-2.282 0-3.412 0.636-8.952-2.389-17.784-8.41-24.542-6.016-6.763-14.532-10.889-23.659-11.473l-327.659-21.606c-10.837-0.96-21.585 2.607-29.602 9.822s-12.561 17.412-12.514 28.087l-22.025 321.847v5.307c0.401 9.052 4.454 17.576 11.268 23.692zM503.454 392.806l283.994 18.197 1.933-0.755c12.194-0.201 23.808-5.146 32.29-13.747 8.478-8.606 13.124-20.16 12.915-32.124-11.187-163.076-130.748-299.332-293.453-334.434-162.706-35.106-329.499 39.373-409.388 182.797-23.491 41.31-38.335 86.805-43.662 133.82-2.066 13.931-2.97 28.002-2.705 42.078 0.538 173.408 123.999 323.082 296.747 359.757 20.912 3.914 41.879-6.527 51.005-25.399 2.27-3.424 4.087-7.119 5.406-10.993 3.238-49.988 6.601-99.503 9.946-148.809 2.641-38.94 5.274-77.745 7.829-116.555-0.132-9.143 1.306-18.24 4.25-26.914 6.933-17.067 24.192-27.895 42.893-26.918z" />
<glyph unicode="&#xe931;" glyph-name="Heart" data-tags="Heart" d="M676.258 853.303c26.923 0 53.803-3.797 79.36-12.373 157.483-51.2 214.229-224 166.827-375.040-26.88-77.184-70.827-147.627-128.384-205.184-82.389-79.787-172.8-150.613-270.123-211.627l-10.667-6.443-11.093 6.869c-97.664 60.587-188.587 131.413-271.744 211.627-57.173 57.557-101.163 127.573-128.469 204.757-48.213 151.040 8.533 323.84 167.723 375.936 12.373 4.267 25.131 7.253 37.931 8.917h5.12c11.989 1.749 23.893 2.56 35.84 2.56h4.693c26.88-0.811 52.907-5.504 78.123-14.080h2.517c1.707-0.811 2.987-1.707 3.84-2.517 9.429-3.029 18.347-6.443 26.88-11.136l16.213-7.253c3.917-2.089 8.316-5.282 12.117-8.041 2.406-1.748 4.574-3.322 6.229-4.332 0.695-0.411 1.404-0.824 2.116-1.24 3.661-2.135 7.471-4.36 10.684-6.824 47.403 36.224 104.96 55.851 164.267 55.424zM789.751 546.103c17.493 0.469 32.427 14.507 33.707 32.469v5.077c1.28 59.776-34.944 113.92-90.027 134.827-17.493 6.016-36.693-3.413-43.093-21.333-5.973-17.92 3.413-37.547 21.333-43.904 27.349-10.24 45.653-37.163 45.653-66.987v-1.323c-0.811-9.771 2.133-19.2 8.107-26.453s14.933-11.477 24.32-12.373z" />
<glyph unicode="&#xe932;" glyph-name="Hide" data-tags="Hide" d="M418.273 309.222c26.642-18.061 59.116-28.983 93.672-28.983 91.588 0 166.11 75.191 166.11 167.603 0 34.863-10.825 67.631-28.727 94.513l-45.376-45.788c7.492-14.281 11.657-31.083 11.657-48.725 0-57.549-46.63-104.593-103.663-104.593-17.485 0-34.138 4.198-48.294 11.759l-45.377-45.786zM786.295 680.554c60.365-55.447 111.573-130.217 149.875-220.108 3.328-7.983 3.328-17.225 0-24.785-89.092-209.19-247.71-334.366-424.226-334.366h-0.418c-80.346 0-157.366 26.466-225.225 74.769l-80.765-81.489c-6.245-6.302-14.155-9.242-22.065-9.242s-16.236 2.94-22.065 9.242c-10.408 10.5-12.073 27.302-3.747 39.484l1.249 1.681 615.73 621.265c0.832 0.84 1.664 1.68 2.082 2.52v0c0.832 0.84 1.664 1.68 2.082 2.52l39.134 39.485c12.489 12.182 32.055 12.182 44.126 0 12.493-12.182 12.493-32.344 0-44.526l-75.767-76.451zM345.53 447.68c0-10.923 1.249-21.845 2.915-31.927l-154.037-155.418c-41.631 48.725-77.851 107.533-106.577 175.164-3.33 7.561-3.33 16.802 0 24.781 89.091 209.189 247.708 333.946 423.811 333.946h0.414c59.533 0 117.402-14.282 170.688-41.165l-139.046-140.299c-9.993 1.68-20.817 2.94-31.642 2.94-92.005 0-166.525-75.19-166.525-168.021z" />
<glyph unicode="&#xe933;" glyph-name="Home" data-tags="Home" d="M389.751 73.673v130.462c0 33.301 27.195 60.301 60.741 60.301h122.633c16.111 0 31.561-6.353 42.953-17.664 11.392-11.307 17.792-26.645 17.792-42.637v-130.462c-0.102-13.845 5.367-27.162 15.194-36.988s23.198-15.351 37.141-15.351h83.665c39.074-0.098 76.587 15.241 104.252 42.633s43.213 64.589 43.213 103.381v371.667c0 31.334-13.99 61.057-38.204 81.16l-284.612 225.655c-49.506 39.565-120.444 38.288-168.474-3.034l-278.118-222.621c-25.356-19.511-40.51-49.321-41.259-81.16v-371.287c0-80.853 66.022-146.394 147.463-146.394h81.754c28.968 0 52.51 23.202 52.72 51.959l1.146 0.38z" />
<glyph unicode="&#xe934;" glyph-name="Image" data-tags="Image" d="M327.090 21.333h369.776c144.653 0 241.801 101.466 241.801 252.446v348.441c0 150.981-97.148 252.447-241.758 252.447h-369.818c-144.609 0-241.757-101.466-241.757-252.447v-348.441c0-150.98 97.148-252.446 241.757-252.446zM362.618 490.667c-58.822 0-106.618 47.86-106.618 106.667s47.796 106.667 106.618 106.667c58.779 0 106.617-47.86 106.617-106.667s-47.838-106.667-106.617-106.667zM845.687 322.816c14.289-36.634 6.865-80.666-8.41-116.945-18.103-43.153-52.77-75.823-96.448-90.091-19.392-6.34-39.731-9.114-60.023-9.114h-359.584c-35.782 0-67.446 8.585-93.403 24.572-16.261 10.035-19.135 33.199-7.079 48.213 20.165 25.097 40.073 50.283 60.152 75.691 38.271 48.61 64.057 62.699 92.717 50.325 11.627-5.107 23.297-12.766 35.311-20.868 32.007-21.751 76.5-51.648 135.107-19.2 40.107 22.464 63.369 60.996 83.627 94.549l0.337 0.559c1.438 2.355 2.859 4.71 4.275 7.057 6.81 11.264 13.525 22.379 21.124 32.619 9.527 12.813 44.834 52.881 90.573 24.346 29.133-17.963 53.632-42.27 79.846-68.292 9.997-9.95 17.118-21.265 21.879-33.421z" />
<glyph unicode="&#xe935;" glyph-name="Image-2" data-tags="Image 2" d="M325.862 815.13c-109.952 0-180.992-75.392-180.992-191.701v-350.464c0-32.64 6.059-61.781 16.427-86.997 0.448 0.533 10.212 12.433 22.95 27.955 24.895 30.34 61.148 74.517 61.402 74.743 29.525 33.707 84.949 83.968 157.696 53.547 15.941-6.609 30.11-15.663 43.153-24 1.271-0.811 2.53-1.617 3.78-2.411 24.448-16.341 38.827-24.021 53.76-22.741 6.187 0.853 11.989 2.688 17.493 6.101 20.762 12.8 74.59 89.071 90.709 111.91 2.364 3.349 3.917 5.551 4.437 6.234 46.507 60.587 118.187 76.8 177.92 40.96 8.021-4.779 65.493-44.928 84.523-61.056v226.219c0 116.309-71.040 191.701-181.376 191.701h-371.883zM697.745 874.65c144.085 0 240.896-100.779 240.896-251.221v-350.464c0-3.785-0.397-7.33-0.794-10.88-0.282-2.492-0.559-4.979-0.7-7.552-0.094-1.553-0.137-3.106-0.179-4.663-0.060-2.069-0.119-4.143-0.29-6.217-0.085-0.811-0.247-1.587-0.405-2.368-0.162-0.777-0.32-1.557-0.405-2.368-1.408-13.397-3.584-26.197-6.613-38.613-0.717-3.102-1.545-6.093-2.377-9.114l-0.183-0.657c-3.413-12.032-7.424-23.509-12.245-34.475-0.845-1.843-1.737-3.639-2.628-5.44-0.593-1.195-1.186-2.394-1.766-3.605-5.205-10.453-10.837-20.48-17.365-29.781-1.207-1.719-2.492-3.337-3.78-4.954-0.853-1.067-1.702-2.133-2.534-3.238-6.784-8.789-13.867-17.195-21.888-24.832-1.6-1.523-3.332-2.914-5.065-4.309-1.079-0.87-2.163-1.741-3.213-2.645-8.235-7.083-16.64-13.867-25.899-19.669-2.022-1.267-4.169-2.334-6.306-3.396-1.382-0.687-2.765-1.37-4.105-2.108-9.429-5.205-18.944-10.283-29.312-14.208-2.496-0.947-5.15-1.634-7.812-2.321-1.89-0.486-3.785-0.977-5.628-1.562-0.922-0.286-1.847-0.572-2.769-0.858-9.259-2.884-18.492-5.756-28.463-7.462-5.777-1.011-11.908-1.399-18.044-1.792-2.658-0.166-5.312-0.337-7.94-0.555-2.825-0.209-5.598-0.55-8.371-0.892-4.51-0.559-9.033-1.114-13.815-1.114h-371.883c-16.043 0-31.36 1.621-46.165 4.053-0.555 0.085-1.067 0.171-1.579 0.256-57.728 9.941-105.643 37.803-139.221 79.829-0.233 0-0.325 0.158-0.447 0.367-0.079 0.137-0.171 0.294-0.321 0.444-33.749 42.496-52.821 99.627-52.821 166.699v350.464c0 150.443 96.896 251.221 240.555 251.221h371.883zM469.333 596.695c0-57.811-48.372-106.028-106.461-106.028-51.059 0-94.594 37.308-104.351 85.605-1.612 7.247-2.522 14.7-2.522 22.4 0 58.223 47.297 105.328 105.757 105.328 29.768 0 56.724-12.518 76.029-32.488 19.392-19.27 31.548-45.829 31.548-74.817z" />
<glyph unicode="&#xe936;" glyph-name="Info-Circle" data-tags="Info Circle" d="M512 874.667c-234.667 0-426.667-192-426.667-426.667s192-426.667 426.667-426.667c234.667 0 426.667 192 426.667 426.667s-192 426.667-426.667 426.667zM473.6 610.133c0 21.333 17.067 38.4 38.4 38.4s38.4-17.067 38.4-38.4v-187.733c0-21.333-17.067-38.4-38.4-38.4s-38.4 17.067-38.4 38.4v187.733zM512 247.467c-21.333 0-38.4 17.067-38.4 38.4s17.067 38.4 38.4 38.4c21.333 0 38.4-17.067 38.4-38.4s-17.067-38.4-38.4-38.4z" />
<glyph unicode="&#xe937;" glyph-name="Info-Square" data-tags="Info Square" d="M695.467 874.667h-366.933c-145.067 0-243.2-102.4-243.2-251.733v-349.867c0-149.333 98.133-251.733 243.2-251.733h371.2c145.067 0 243.2 102.4 243.2 251.733v349.867c-4.267 149.333-102.4 251.733-247.467 251.733zM550.4 285.867c0-21.333-17.067-38.4-38.4-38.4s-38.4 17.067-38.4 38.4v187.733c0 21.333 17.067 38.4 38.4 38.4s38.4-17.067 38.4-38.4v-187.733zM512 571.733c-21.333 0-38.4 17.067-38.4 38.4s17.067 38.4 38.4 38.4c21.333 0 38.4-17.067 38.4-38.4s-17.067-38.4-38.4-38.4z" />
<glyph unicode="&#xe938;" glyph-name="Location" data-tags="Location" d="M149.333 519.774c0 196.263 164.006 354.893 362.385 354.893 198.942 0 362.948-158.63 362.948-354.893 0-98.897-35.968-190.711-95.168-268.535-65.31-85.841-145.805-160.636-236.416-219.341-20.736-13.568-39.45-14.592-62.212 0-91.121 58.705-171.619 133.5-236.369 219.341-59.244 77.824-95.168 169.638-95.168 268.535zM392.287 508.723c0-65.745 53.652-117.457 119.431-117.457 65.826 0 119.996 51.712 119.996 117.457 0 65.237-54.17 119.465-119.996 119.465-65.779 0-119.431-54.228-119.431-119.465z" />
<glyph unicode="&#xe939;" glyph-name="Lock" data-tags="Lock" d="M747.635 644.437c0 127.199-105.353 230.23-236.284 230.23-129.2 0-234.554-103.031-234.987-230.23v-65.423c-73.444-22.938-127.031-89.461-127.031-168.919v-210.641c0-98.368 81.551-178.121 182.135-178.121h361.105c100.54 0 182.093 79.753 182.093 178.121v210.641c0 79.458-53.542 145.981-127.031 168.919v65.423zM512.218 800.468c88.009 0 159.548-69.959 159.548-156.031v-56.221h-319.529v57.070c0.433 85.647 71.97 155.183 159.982 155.183zM549.935 257.924c0-20.779-16.909-37.312-38.153-37.312-20.809 0-37.717 16.533-37.717 37.312v94.127c0 20.352 16.909 36.885 37.717 36.885 21.244 0 38.153-16.533 38.153-36.885v-94.127z" />
<glyph unicode="&#xe93a;" glyph-name="Login" data-tags="Login" d="M507.14 874.667h215.010c107.503 0 195.183-85.333 195.183-189.44v-474.453c0-104.533-87.68-189.44-196.066-189.44h-214.566c-107.507 0-195.625 84.907-195.625 189.013v204.8h273.168l-70.494-68.267c-13.218-12.8-13.218-33.707 0-46.507 6.609-6.4 15.42-9.387 24.23-9.387 8.371 0 17.186 2.987 23.795 9.387l128.653 124.16c6.609 5.973 10.133 14.507 10.133 23.467 0 8.533-3.524 17.067-10.133 23.040l-128.653 124.16c-13.218 12.8-34.807 12.8-48.026 0s-13.218-33.707 0-46.507l70.494-67.84h-273.168v203.947c0 104.533 88.119 189.867 196.065 189.867zM106.667 448.004c0 17.92 15.156 32.853 33.344 32.853h171.052v-65.707h-171.052c-18.188 0-33.344 14.507-33.344 32.853z" />
<glyph unicode="&#xe93b;" glyph-name="Logout" data-tags="Logout" d="M422.202 480.853c-18.667 0-33.426-14.507-33.426-32.853 0-17.92 14.76-32.853 33.426-32.853h260.465v-203.947c0-104.533-86.387-189.867-193.178-189.867h-211.412c-106.356 0-192.744 84.907-192.744 189.44v474.027c0 104.96 86.822 189.867 193.178 189.867h211.843c105.924 0 192.311-84.907 192.311-189.44v-204.373h-260.465zM837.555 595.618l124.587-124.16c6.4-6.4 9.813-14.507 9.813-23.467 0-8.533-3.413-17.067-9.813-23.040l-124.587-124.16c-6.4-6.4-14.933-9.813-23.040-9.813-8.533 0-17.067 3.413-23.467 9.813-12.8 12.8-12.8 33.707 0 46.507l68.267 67.84h-176.64v65.707h176.64l-68.267 67.84c-12.8 12.8-12.8 33.707 0 46.507 12.8 13.227 33.707 13.227 46.507 0.427z" />
<glyph unicode="&#xe93c;" glyph-name="Message" data-tags="Message" d="M722.748 832c57.216 0 112.256-22.613 152.747-63.189 40.533-40.491 63.189-95.104 63.189-152.277v-337.067c0-119.040-96.853-215.467-215.936-215.467h-421.504c-119.083 0-215.893 96.427-215.893 215.467v337.067c0 119.040 96.384 215.467 215.893 215.467h421.504zM790.63 552.96l3.413 3.413c10.197 12.373 10.197 30.293-0.469 42.667-5.931 6.357-14.080 10.24-22.571 11.093-8.96 0.469-17.493-2.56-23.936-8.533l-192.384-153.6c-24.747-20.523-60.203-20.523-85.333 0l-192 153.6c-13.269 9.813-31.616 8.533-42.667-2.987-11.52-11.52-12.8-29.867-3.029-42.667l5.589-5.547 194.133-151.467c23.893-18.773 52.864-29.013 83.2-29.013 30.251 0 59.733 10.24 83.584 29.013l192.469 154.027z" />
<glyph unicode="&#xe93d;" glyph-name="More-Circle" data-tags="More Circle" d="M512 874.667c-234.667 0-426.667-192-426.667-426.667s192-426.667 426.667-426.667c234.667 0 426.667 192 426.667 426.667s-192 426.667-426.667 426.667zM320 396.8c-29.867 0-51.2 21.333-51.2 51.2s21.333 51.2 51.2 51.2c29.867 0 51.2-21.333 51.2-51.2s-21.333-51.2-51.2-51.2zM512 396.8c-29.867 0-51.2 21.333-51.2 51.2s21.333 51.2 51.2 51.2c29.867 0 51.2-21.333 51.2-51.2s-21.333-51.2-51.2-51.2zM704 396.8c-29.867 0-51.2 21.333-51.2 51.2s21.333 51.2 51.2 51.2c29.867 0 51.2-21.333 51.2-51.2s-25.6-51.2-51.2-51.2z" />
<glyph unicode="&#xe93e;" glyph-name="More-Square" data-tags="More Square" d="M695.467 874.667h-366.933c-145.067 0-243.2-102.4-243.2-251.733v-349.867c0-149.333 98.133-251.733 243.2-251.733h371.2c145.067 0 243.2 102.4 243.2 251.733v349.867c-4.267 149.333-102.4 251.733-247.467 251.733zM320 396.8c-29.867 0-51.2 21.333-51.2 51.2s21.333 51.2 51.2 51.2c29.867 0 51.2-21.333 51.2-51.2s-21.333-51.2-51.2-51.2zM512 396.8c-29.867 0-51.2 21.333-51.2 51.2s21.333 51.2 51.2 51.2c29.867 0 51.2-21.333 51.2-51.2s-21.333-51.2-51.2-51.2zM704 396.8c-29.867 0-51.2 21.333-51.2 51.2s21.333 51.2 51.2 51.2c29.867 0 51.2-21.333 51.2-51.2s-25.6-51.2-51.2-51.2z" />
<glyph unicode="&#xe93f;" glyph-name="Notification" data-tags="Notification" d="M798.17 584.69c0-53.588 14.161-85.17 45.329-121.569 23.62-26.816 31.168-61.235 31.168-98.577 0-37.299-12.254-72.708-36.809-101.457-32.141-34.466-77.474-56.465-123.738-60.292-67.042-5.713-134.123-10.526-202.099-10.526-68.019 0-135.059 2.876-202.101 10.526-46.306 3.827-91.636 25.826-123.737 60.292-24.553 28.749-36.85 64.158-36.85 101.457 0 37.342 7.59 71.761 31.168 98.577 32.143 36.399 45.373 67.981 45.373 121.569v18.177c0 71.764 17.895 118.689 54.745 164.627 54.787 66.993 142.607 107.173 229.495 107.173h3.814c88.755 0 179.413-42.113 233.271-111.985 34.94-44.992 50.97-89.941 50.97-159.814v-18.177zM387.143 104.073c0 21.483 19.718 31.326 37.952 35.537 21.33 4.51 151.301 4.51 172.63 0 18.236-4.211 37.952-14.054 37.952-35.537-1.062-20.454-13.060-38.592-29.641-50.108-21.5-16.759-46.729-27.371-73.105-31.198-14.588-1.89-28.919-1.933-42.999 0-26.419 3.827-51.648 14.438-73.106 31.241-16.623 11.473-28.623 29.611-29.684 50.065z" />
<glyph unicode="&#xe940;" glyph-name="Paper" data-tags="Paper" d="M380.832 260.693h229.809c17.318 0 31.684 14.507 31.684 32s-14.366 31.573-31.684 31.573h-229.809c-17.32 0-31.683-14.080-31.683-31.573s14.363-32 31.683-32zM523.618 537.6h-142.787c-17.32 0-31.683-14.507-31.683-32s14.363-31.573 31.683-31.573h142.787c17.318 0 31.684 14.080 31.684 31.573s-14.366 32-31.684 32zM825.092 574.907c9.929 0.115 20.74 0.239 30.566 0.239 10.56 0 19.008-8.533 19.008-19.2v-343.040c0-105.813-84.911-191.573-189.675-191.573h-336.266c-109.835 0-199.393 90.027-199.393 200.96v459.947c0 105.813 85.333 192.427 190.522 192.427h225.585c10.982 0 19.43-8.96 19.43-19.627v-137.387c0-78.080 63.791-142.080 141.099-142.507 18.057 0 33.975-0.135 47.906-0.253 10.837-0.092 20.471-0.174 28.975-0.174 6.016 0 13.811 0.090 22.242 0.187zM836.74 637.184c-34.726-0.128-75.661 0-105.105 0.299-46.72 0-85.205 38.869-85.205 86.059v112.469c0 18.389 22.093 27.52 34.726 14.251 22.861-24.011 54.281-57.017 85.559-89.872 31.189-32.766 62.238-65.381 84.514-88.774 12.335-12.928 3.294-34.389-14.49-34.432z" />
<glyph unicode="&#xe941;" glyph-name="Paper-Download" data-tags="Paper Download" d="M518.549 250.027l121.237 122.453c12.254 12.8 12.254 32.853-0.422 45.227-12.25 12.373-32.102 12.373-44.356 0l-67.166-68.267v205.653c0 17.92-13.939 32-31.262 32-17.318 0-31.684-14.080-31.684-32v-205.653l-67.167 68.267c-12.251 12.373-32.105 12.373-44.356 0s-12.251-32.427 0-45.227l120.82-122.453c2.957-2.987 6.336-5.12 10.138-6.827s8.026-2.56 12.25-2.56c4.224 0 8.026 0.853 11.827 2.56 3.806 1.707 7.185 3.84 10.142 6.827zM824.67 574.907c9.929 0.115 20.74 0.239 30.566 0.239 10.982 0 19.43-8.533 19.43-19.2v-343.040c0-105.813-85.333-191.573-190.097-191.573h-335.843c-110.257 0-199.393 90.027-199.393 200.96v459.947c0 105.813 84.911 192.427 190.522 192.427h225.585c10.56 0 19.43-8.96 19.43-19.627v-137.387c0-78.080 63.369-142.080 141.099-142.507 17.852 0 33.826-0.136 47.774-0.254 10.803-0.091 20.39-0.173 28.685-0.173 6.016 0 13.811 0.090 22.242 0.187zM836.459 637.18c-34.684-0.128-75.618 0-105.062 0.299-46.724 0-85.21 38.869-85.21 86.059v112.469c0 18.389 22.097 27.52 34.684 14.251 32.529-34.129 82.321-86.43 124.412-130.639 17.054-17.913 32.845-34.498 45.705-48.006 12.339-12.928 3.298-34.389-14.528-34.432z" />
<glyph unicode="&#xe942;" glyph-name="Paper-Fail" data-tags="Paper Fail" d="M599.659 308.907c12.25 12.373 12.25 32.427 0 44.8l-51.541 52.053 51.541 52.053c12.25 12.373 12.25 32.427 0 44.8-12.254 12.8-32.529 12.8-44.779 0l-51.541-52.053-51.537 52.053c-12.25 12.8-32.105 12.8-44.356 0-12.25-12.373-12.25-32.427 0-44.8l51.537-52.053-51.537-52.053c-12.25-12.373-12.25-32.427 0-44.8 5.914-6.4 13.941-9.387 21.969-9.387 8.026 0 16.474 2.987 22.387 9.387l51.537 52.053 51.541-52.053c6.336-6.4 14.362-9.387 22.387-9.387s16.051 2.987 22.391 9.387zM824.977 574.909c9.95 0.114 20.715 0.238 30.259 0.238 10.982 0 19.43-8.533 19.43-19.2v-343.040c0-105.813-84.911-191.573-190.097-191.573h-335.843c-110.257 0-199.393 90.027-199.393 200.96v459.947c0 105.813 85.333 192.427 190.522 192.427h225.585c10.56 0 19.43-8.96 19.43-19.627v-137.387c0-78.080 63.791-142.080 141.099-142.507 17.852 0 33.826-0.136 47.774-0.254 10.803-0.091 20.39-0.173 28.685-0.173 6.054 0 13.999 0.091 22.549 0.189zM836.506 637.175c-34.722-0.128-75.614 0-105.058 0.299-46.724 0-85.21 38.869-85.21 86.059v112.469c0 18.389 22.097 27.52 34.684 14.251 32.529-34.128 82.321-86.427 124.407-130.636 17.054-17.914 32.845-34.5 45.709-48.009 12.297-12.928 3.298-34.389-14.532-34.432z" />
<glyph unicode="&#xe943;" glyph-name="Paper-Negative" data-tags="Paper Negative" d="M368.158 405.76c0-17.493 14.363-31.573 31.683-31.573h208.687c17.318 0 31.684 14.080 31.684 31.573 0 17.92-14.366 32-31.684 32h-208.687c-17.32 0-31.683-14.080-31.683-32zM825.092 574.907c9.929 0.115 20.74 0.239 30.566 0.239 10.56 0 19.008-8.533 19.008-19.2v-343.040c0-105.813-84.911-191.573-190.097-191.573h-335.843c-109.835 0-199.393 90.027-199.393 200.96v459.947c0 105.813 85.333 192.427 190.522 192.427h225.585c10.982 0 19.43-8.96 19.43-19.627v-137.387c0-78.080 63.791-142.080 141.099-142.507 18.057 0 33.975-0.135 47.906-0.253 10.837-0.092 20.471-0.174 28.975-0.174 6.016 0 13.811 0.090 22.242 0.187zM836.693 637.175c-34.726-0.128-75.661 0-105.105 0.299-46.72 0-85.205 38.869-85.205 86.059v112.469c0 18.389 22.093 27.52 34.726 14.251 22.869-24.017 54.298-57.033 85.581-89.896 31.185-32.758 62.225-65.363 84.493-88.75 12.335-12.928 3.294-34.389-14.49-34.432z" />
<glyph unicode="&#xe944;" glyph-name="Paper-Plus" data-tags="Paper Plus" d="M535.445 374.187h73.084c17.318 0 31.684 14.080 31.684 31.573 0 17.92-14.366 32-31.684 32h-73.084v73.813c0 17.493-13.939 31.573-31.262 31.573-17.318 0-31.68-14.080-31.68-31.573v-73.813h-72.662c-17.32 0-31.683-14.080-31.683-32 0-17.493 14.363-31.573 31.683-31.573h72.662v-73.813c0-17.493 14.362-31.573 31.68-31.573 17.323 0 31.262 14.080 31.262 31.573v73.813zM825.092 574.907c9.929 0.115 20.74 0.239 30.566 0.239 10.56 0 19.008-8.533 19.008-19.2v-343.040c0-105.813-84.911-191.573-190.097-191.573h-335.843c-109.835 0-199.393 90.027-199.393 200.96v459.947c0 105.813 85.333 192.427 190.522 192.427h225.585c10.982 0 19.43-8.96 19.43-19.627v-137.387c0-78.080 63.791-142.080 141.099-142.507 18.057 0 33.975-0.135 47.906-0.253 10.837-0.092 20.471-0.174 28.975-0.174 6.016 0 13.811 0.090 22.242 0.187zM836.693 637.175c-34.726-0.128-75.661 0-105.105 0.299-46.72 0-85.205 38.869-85.205 86.059v112.469c0 18.389 22.093 27.52 34.726 14.251 22.869-24.017 54.298-57.033 85.581-89.896 31.185-32.758 62.225-65.363 84.493-88.75 12.335-12.928 3.294-34.389-14.49-34.432z" />
<glyph unicode="&#xe945;" glyph-name="Paper-Upload" data-tags="Paper Upload" d="M595.008 410.027c12.254-12.373 32.107-12.373 44.356 0 12.676 12.373 12.676 32.427 0.422 44.8l-121.237 122.88c-2.957 2.987-6.336 5.12-10.142 6.827-3.802 1.707-7.603 2.56-11.827 2.56s-8.448-0.853-12.25-2.56c-3.802-1.707-7.181-3.84-10.138-6.827l-120.82-122.88c-12.251-12.373-12.251-32.427 0-44.8s32.105-12.373 44.356 0l67.167 68.267v-206.080c0-17.493 13.943-31.573 31.684-31.573 17.323 0 31.262 14.080 31.262 31.573v206.080l67.166-68.267zM824.67 574.907c9.929 0.115 20.74 0.239 30.566 0.239 10.56 0 19.43-8.533 19.43-19.2v-343.040c0-105.813-85.333-191.573-190.097-191.573h-335.843c-110.257 0-199.393 90.027-199.393 200.96v459.947c0 105.813 84.911 192.427 190.522 192.427h225.585c10.56 0 19.43-8.96 19.43-19.627v-137.387c0-78.080 63.369-142.080 141.099-142.507 17.766 0 33.54-0.134 47.398-0.252 10.85-0.092 20.527-0.175 29.060-0.175 6.016 0 13.811 0.090 22.242 0.187zM836.467 637.184c-34.726-0.128-75.618 0-105.062 0.299-46.724 0-85.21 38.869-85.21 86.059v112.469c0 18.389 22.054 27.52 34.684 14.251 32.525-34.124 82.308-86.417 124.395-130.622 17.062-17.92 32.858-34.51 45.722-48.023 12.297-12.928 3.255-34.389-14.528-34.432z" />
<glyph unicode="&#xe946;" glyph-name="Password" data-tags="Password" d="M725.79 337.015c17.664 0 32 14.336 32 32v79.019c0 17.664-14.336 32-32 32h-242.859c-13.824 45.525-55.723 78.976-105.728 78.976-61.184 0-110.976-49.792-110.976-110.976 0-61.227 49.792-111.019 110.976-111.019 50.006 0 91.904 33.451 105.728 79.019h90.112v-47.019c0-17.664 14.336-32 32-32s32 14.336 32 32v47.019h56.747v-47.019c0-17.664 14.336-32 32-32zM327.069 874.7h369.878c144.555 0 241.707-101.461 241.707-252.459v-348.458c0-150.997-97.152-252.416-241.749-252.416h-369.835c-144.597 0-241.749 101.419-241.749 252.416v348.458c0 150.997 97.152 252.459 241.749 252.459zM330.188 447.996c0 25.941 21.12 47.019 47.019 47.019s47.019-21.077 47.019-47.019c0-25.899-21.12-46.976-47.019-46.976s-47.019 21.077-47.019 46.976z" />
<glyph unicode="&#xe947;" glyph-name="Play" data-tags="Play" d="M85.333 447.753c0 235.501 191.506 426.914 426.667 426.914s426.667-191.413 426.667-426.914c0-235.004-191.505-426.419-426.667-426.419s-426.667 191.415-426.667 426.419zM668.501 404.574c4.527 4.527 10.295 11.524 11.529 13.171 6.592 8.644 9.886 19.345 9.886 30.007 0 11.981-3.708 23.095-10.709 32.149-0.572 0.576-1.698 1.796-3.162 3.392-2.739 2.978-6.669 7.262-10.428 11.017-33.771 36.224-121.907 95.5-168.030 113.612-7.002 2.84-24.713 9.056-34.185 9.468-9.062 0-17.711-2.058-25.946-6.175-10.295-5.763-18.533-14.819-23.063-25.521-2.883-7.409-7.413-29.638-7.413-30.050-4.53-24.286-7.001-63.804-7.001-107.439 0-41.617 2.471-79.445 6.178-104.145 0.102-0.102 0.456-1.869 1.007-4.612 1.673-8.341 5.158-25.724 8.878-32.845 9.060-17.289 26.77-27.994 45.714-27.994h1.647c12.356 0.414 38.302 11.115 38.302 11.524 43.657 18.116 129.728 74.509 164.322 111.97l2.475 2.47z" />
<glyph unicode="&#xe948;" glyph-name="Plus" data-tags="Plus" d="M312.755 874.663h398.080c145.067 0 227.84-81.92 227.84-227.413v-398.507c0-144.64-82.347-227.413-227.413-227.413h-398.507c-145.493 0-227.413 82.773-227.413 227.413v398.507c0 145.493 81.92 227.413 227.413 227.413zM546.995 412.582h121.173c19.627 0.427 35.413 16.213 35.413 35.84s-15.787 35.413-35.413 35.413h-121.173v120.32c0 19.627-15.787 35.413-35.413 35.413s-35.413-15.787-35.413-35.413v-120.32h-120.747c-9.387 0-18.347-3.84-25.173-10.24-6.4-6.827-10.24-15.744-10.24-25.173 0-19.627 15.787-35.413 35.413-35.84h120.747v-120.747c0-19.627 15.787-35.413 35.413-35.413s35.413 15.787 35.413 35.413v120.747z" />
<glyph unicode="&#xe949;" glyph-name="Profile" data-tags="Profile" d="M737.877 648.915c0-125.314-100.476-225.794-225.877-225.794-125.359 0-225.877 100.48-225.877 225.794s100.518 225.751 225.877 225.751c125.402 0 225.877-100.438 225.877-225.751zM512 21.333c-185.072 0-341.333 30.080-341.333 146.133 0 116.1 157.243 145.114 341.333 145.114 185.114 0 341.333-30.080 341.333-146.138 0-116.096-157.244-145.109-341.333-145.109z" />
<glyph unicode="&#xe94a;" glyph-name="Scan" data-tags="Scan" d="M359.582 832c17.92 0 32.469-14.267 32.469-31.881 0-17.572-14.507-31.839-32.469-31.839l-69.504-0.042c-57.685-0.084-104.619-46.148-104.619-102.756v-79.327c0-17.572-14.592-31.881-32.512-31.881s-32.469 14.309-32.469 31.881v79.327c0 91.711 76.075 166.394 169.557 166.477l69.547 0.042zM665.626 831.988h67.968c93.739 0 169.941-74.725 169.941-166.645v-79.201c0-17.572-14.507-31.881-32.469-31.881-17.92 0-32.469 14.309-32.469 31.881v79.201c0 56.776-47.104 102.966-105.003 102.966h-67.968c-17.92 0-32.469 14.225-32.469 31.798 0 17.614 14.549 31.881 32.469 31.881zM629.867 672.313h-235.691c-53.931-0.544-97.28-43.764-96.811-96.69v-53.136c0.128-6.191 5.205-11.255 11.52-11.465h406.187c6.357 0.171 11.435 5.231 11.648 11.465v53.136c0.043 25.564-10.027 50.123-28.203 68.407-18.048 18.116-42.837 28.283-68.651 28.283zM75.179 446.242h873.685c17.92 0 32.469-14.268 32.469-31.885 0-17.57-14.549-31.795-32.469-31.795h-45.312v-151.876c0-91.959-76.245-166.686-169.941-166.686h-67.968c-17.963 0-32.512 14.268-32.512 31.881 0 17.574 14.549 31.842 32.512 31.842h67.968c57.899 0 105.003 46.148 105.003 102.963v151.876h-111.915v-42.3c0.427-52.928-42.88-96.188-96.853-96.691h-235.691c-53.931 0.503-97.237 43.763-96.811 96.691v42.3h-111.915v-152.043c0-56.61 46.976-102.673 104.704-102.758l69.461-0.038c17.92 0 32.469-14.268 32.469-31.842-0.043-17.613-14.549-31.881-32.512-31.881l-69.504 0.043c-93.483 0.081-169.6 74.765-169.6 166.477v152.043h-45.269c-17.92 0-32.512 14.225-32.512 31.795 0 17.617 14.592 31.885 32.512 31.885z" />
<glyph unicode="&#xe94b;" glyph-name="Search" data-tags="Search" d="M85.333 504.751c0 204.298 163.855 369.916 365.978 369.916 97.067 0 190.153-38.973 258.786-108.346 68.638-69.373 107.196-163.463 107.196-261.57 0-204.301-163.857-369.92-365.982-369.92-202.123 0-365.978 165.619-365.978 369.92zM811.238 206.75l108.996-87.983h1.894c22.050-22.289 22.050-58.428 0-80.717-22.054-22.289-57.805-22.289-79.859 0l-90.453 103.667c-8.55 8.614-13.359 20.314-13.359 32.516s4.809 23.902 13.359 32.516c16.491 16.38 42.927 16.38 59.422 0z" />
<glyph unicode="&#xe94c;" glyph-name="Send" data-tags="Send" d="M914.577 849.836c-21.342 21.904-52.928 30.065-82.381 21.475l-686.788-199.717c-31.074-8.633-53.099-33.415-59.032-64.897-6.061-32.041 15.11-72.714 42.769-89.722l214.744-131.985c22.025-13.53 50.452-10.138 68.679 8.247l245.903 247.433c12.378 12.885 32.866 12.885 45.248 0 12.378-12.456 12.378-32.642 0-45.527l-246.332-247.478c-18.27-18.338-21.683-46.899-8.239-69.060l131.213-216.9c15.364-25.766 41.83-40.371 70.852-40.371 3.418 0 7.258 0 10.675 0.431 33.293 4.292 59.755 27.055 69.572 59.268l203.605 685.91c8.964 29.206 0.853 60.989-20.489 82.893z" />
<glyph unicode="&#xe94d;" glyph-name="Setting" data-tags="Setting" d="M870.494 380.582c15.262-8.107 27.038-20.907 35.319-33.707 16.132-26.453 14.827-58.88-0.87-87.467l-30.524-51.2c-16.132-27.307-46.221-44.373-77.175-44.373-15.262 0-32.269 4.267-46.221 12.8-11.337 7.253-24.418 9.813-38.37 9.813-43.17 0-79.36-35.413-80.67-77.653 0-49.067-40.115-87.467-90.257-87.467h-59.302c-50.581 0-90.694 38.4-90.694 87.467-0.872 42.24-37.063 77.653-80.23 77.653-14.389 0-27.471-2.56-38.371-9.813-13.953-8.533-31.395-12.8-46.22-12.8-31.395 0-61.481 17.067-77.615 44.373l-30.086 51.2c-16.133 27.733-17.005 61.013-0.872 87.467 6.977 12.8 20.058 25.6 34.883 33.707 12.209 5.973 20.058 15.787 27.47 27.307 21.802 36.693 8.721 84.907-28.342 106.667-43.168 24.32-57.12 78.506-32.267 120.746l29.214 50.347c25.29 42.24 79.359 57.173 122.962 32.427 37.935-20.48 87.207-6.827 109.445 29.44 6.976 11.947 10.901 24.747 10.029 37.547-0.872 16.64 3.924 32.427 12.209 45.227 16.134 26.453 45.347 43.52 77.18 44.373h61.478c32.269 0 61.483-17.92 77.615-44.373 7.851-12.8 13.082-28.587 11.772-45.227-0.87-12.8 3.055-25.6 10.031-37.547 22.238-36.267 71.509-49.92 109.879-29.44 43.17 24.747 97.673 9.813 122.526-32.427l29.214-50.347c25.293-42.24 11.337-96.427-32.265-120.746-37.065-21.76-50.146-69.973-27.908-106.667 6.976-11.52 14.827-21.333 27.034-27.307zM388.677 447.569c0-66.987 55.377-120.32 123.835-120.32 68.454 0 122.526 53.333 122.526 120.32s-54.071 120.746-122.526 120.746c-68.459 0-123.835-53.76-123.835-120.746z" />
<glyph unicode="&#xe94e;" glyph-name="Shield-Done" data-tags="Shield Done" d="M874.667 704c0 34.133-21.333 59.733-51.2 72.533l-281.6 93.867c-17.067 4.267-34.133 4.267-51.2 0l-290.133-98.133c-29.867-12.8-51.2-42.667-51.2-72.533v-281.6c0-85.333 34.133-170.667 89.6-234.667 25.6-29.867 59.733-55.467 102.4-76.8l153.6-81.067c8.533-4.267 17.067-4.267 21.333-4.267s8.533 0 17.067 4.267l149.333 81.067c42.667 21.333 76.8 46.933 102.4 76.8 55.467 64 89.6 149.333 89.6 234.667v285.867zM674.133 520.533l-166.4-162.133c-4.267-4.267-12.8-8.533-21.333-8.533s-17.067 4.267-21.333 8.533l-81.067 76.8c-12.8 12.8-12.8 34.133 0 42.667 12.8 12.8 34.133 12.8 46.933 0l59.733-55.467 145.067 140.8c12.8 12.8 34.133 12.8 46.933 0 0-8.533 0-29.867-8.533-42.667z" />
<glyph unicode="&#xe94f;" glyph-name="Shield-Fail" data-tags="Shield Fail" d="M819.26 775.31c31.778-10.46 53.252-39.789 53.252-72.423l2.146-283.205c0.431-85.773-30.921-169.028-88.461-234.342-26.197-30.123-60.122-55.646-103.066-78.656l-152.448-81.583c-4.723-2.513-9.877-3.767-15.031-3.767s-10.735 1.254-15.458 3.767l-153.738 79.492c-43.373 22.592-77.298 47.697-103.923 77.402-58.403 64.431-91.040 147.691-91.469 233.459l-1.718 283.291c-0.429 32.634 21.042 61.879 52.391 72.799l282.137 98.698c16.747 5.9 35.213 5.9 52.39 0l282.995-94.932zM615.279 358.972c12.454 12.134 12.454 32.218 0 44.348l-57.971 56.525 57.971 56.444c12.454 12.13 12.454 31.796 0 44.389-12.45 12.133-33.062 12.133-45.517 0l-57.975-56.524-57.971 56.524c-12.454 12.133-32.638 12.133-45.521 0-12.454-12.593-12.454-32.259 0-44.389l57.971-56.444-57.971-56.525c-12.454-12.13-12.454-32.213 0-44.348 6.441-6.276 14.601-9.161 22.758-9.161 8.589 0 16.751 2.884 22.763 9.161l57.971 56.482 57.975-56.482c6.438-6.276 14.601-9.161 22.758-9.161s16.747 2.884 22.758 9.161z" />
<glyph unicode="&#xe950;" glyph-name="Show" data-tags="Show" d="M345.496 448c0-91.021 74.511-165.082 166.504-165.082 91.575 0 166.089 74.061 166.089 165.082 0 91.436-74.513 165.495-166.089 165.495-91.994 0-166.504-74.059-166.504-165.495zM756.762 702.035c72.845-56.268 134.869-138.602 179.409-241.623 3.328-7.859 3.328-16.964 0-24.41-89.079-206.042-247.676-329.335-424.171-329.335h-0.418c-176.076 0-334.671 123.294-423.751 329.335-3.33 7.445-3.33 16.55 0 24.41 89.079 206.042 247.674 328.922 423.751 328.922h0.418c88.247 0 171.917-30.617 244.762-87.299zM512.051 345.071c57.028 0 103.646 46.336 103.646 103.019 0 57.097-46.618 103.436-103.646 103.436-4.996 0-9.993-0.414-14.571-1.242-1.664-45.512-39.13-81.919-85.333-81.919h-2.081c-1.249-6.622-2.081-13.239-2.081-20.275 0-56.683 46.62-103.019 104.066-103.019z" />
<glyph unicode="&#xe951;" glyph-name="Star" data-tags="Star" d="M764.523 349.009c-11.051-10.709-16.128-26.197-13.611-41.387l37.931-209.92c3.2-17.792-4.309-35.797-19.2-46.080-14.592-10.667-34.005-11.947-49.92-3.413l-188.971 98.56c-6.571 3.499-13.867 5.376-21.333 5.589h-11.563c-4.011-0.597-7.936-1.877-11.52-3.84l-189.013-99.029c-9.344-4.693-19.925-6.357-30.293-4.693-25.259 4.779-42.112 28.843-37.973 54.229l37.973 209.92c2.517 15.317-2.56 30.891-13.611 41.771l-154.069 149.333c-12.885 12.501-17.365 31.275-11.477 48.213 5.717 16.896 20.309 29.227 37.931 32l212.053 30.763c16.128 1.664 30.293 11.477 37.547 25.984l93.44 191.573c2.219 4.267 5.077 8.192 8.533 11.52l3.84 2.987c2.005 2.219 4.309 4.053 6.869 5.547l4.651 1.707 7.253 2.987h17.963c16.043-1.664 30.165-11.264 37.547-25.6l94.677-190.72c6.827-13.952 20.096-23.637 35.413-25.984l212.053-30.763c17.92-2.56 32.896-14.933 38.827-32 5.589-17.109 0.768-35.882-12.373-48.213l-159.573-151.040z" />
<glyph unicode="&#xe952;" glyph-name="Swap" data-tags="Swap" d="M321.97 820.142c7.090-5.118 18.525-16.876 18.525-16.876 44.391-41.606 111.255-145.088 132.724-197.589 0.448 0 13.184-31.217 13.683-46.065v-1.976c0-22.754-12.736-44.040-33.207-54.933-8.439-4.493-28.968-8.67-38.872-10.684-3.28-0.67-5.395-1.101-5.519-1.225-29.261-4.463-74.152-7.398-123.437-7.398-51.732 0-98.569 2.935-127.381 8.41-0.5 0-26.815 5.423-35.603 8.922-12.684 5.419-23.419 15.351-30.26 27.721-4.893 9.88-7.29 20.319-7.29 31.164 0.449 11.402 7.79 32.687 11.185 41.099 21.472 55.491 91.729 161.456 134.672 202.048 4.461 4.527 9.538 9.27 13.070 12.57 1.885 1.76 3.33 3.111 4.007 3.798 10.736 8.413 23.919 12.872 38.1 12.872 12.634 0 25.317-3.953 35.603-11.858zM777.754 526.43c0-22.349-17.826-40.439-39.846-40.439s-39.846 18.091-39.846 40.439l-10.987 195.364c0 28.481 22.771 51.539 50.833 51.539s50.782-23.058 50.782-51.539l-10.935-195.364zM901.116 395.281c12.685-5.474 23.42-15.356 30.259-27.721 4.894-9.882 7.292-20.322 7.292-31.219-0.448-11.349-7.791-32.687-11.234-41.097-21.423-55.445-91.729-161.412-134.622-202.052-4.386-4.42-9.37-9.071-12.894-12.361h-0.004c-1.967-1.839-3.482-3.251-4.181-3.959-10.786-8.414-23.919-12.873-38.050-12.873-12.732 0-25.417 3.951-35.652 11.908-7.091 5.069-18.526 16.828-18.526 16.828-44.442 41.553-111.253 145.088-132.723 197.594-0.499 0-13.184 31.164-13.683 46.012v1.98c0 22.805 12.685 44.087 33.207 54.985 8.422 4.446 28.885 8.631 38.814 10.667v0c3.315 0.678 5.453 1.114 5.577 1.242 29.261 4.459 74.155 7.398 123.439 7.398 51.729 0 98.569-2.94 127.381-8.41 0.448 0 26.812-5.423 35.601-8.922zM286.103 410.005c-22.021 0-39.847-18.095-39.847-40.439l-10.985-195.362c0-28.48 22.77-51.537 50.833-51.537s50.783 23.057 50.783 51.537l-10.935 195.362c0 22.345-17.826 40.439-39.847 40.439z" />
<glyph unicode="&#xe953;" glyph-name="Tick-Square" data-tags="Tick Square" d="M327.258 874.671h369.919c144.64 0 241.493-101.547 241.493-252.587v-348.629c0-150.571-96.853-252.117-241.493-252.117h-369.919c-144.64 0-241.92 101.547-241.92 252.117v348.629c0 151.040 97.28 252.587 241.92 252.587zM487.684 320.431l202.667 202.667c14.507 14.506 14.507 37.973 0 52.906-14.507 14.507-38.4 14.507-52.907 0l-176.213-176.213-74.666 74.667c-14.507 14.507-38.4 14.507-52.907 0s-14.507-37.973 0-52.907l101.546-101.12c7.253-7.253 16.64-10.667 26.027-10.667 9.813 0 19.2 3.413 26.453 10.667z" />
<glyph unicode="&#xe954;" glyph-name="Ticket" data-tags="Ticket" d="M929.587 510.336c-5.777-5.615-13.615-8.819-21.867-8.819-30.537 0-55.296-24.055-55.296-53.316 0-29.461 24.469-53.393 54.716-53.717 17.041-0.158 31.526-11.703 31.526-28.258v-102.822c0-86.545-72.213-156.736-161.34-156.736h-134.519c-13.909 0-25.173 10.944-25.173 24.452v86.588c0 16.836-13.615 30.063-30.946 30.063-16.917 0-30.95-13.227-30.95-30.063v-86.588c0-13.508-11.264-24.452-25.126-24.452h-283.937c-88.717 0-161.341 70.153-161.341 156.736v102.822c0 16.555 14.484 28.1 31.526 28.258 30.287 0.324 54.716 24.256 54.716 53.717 0 28.463-23.933 50.108-55.293 50.108-8.253 0-16.093 3.209-21.87 8.819s-9.078 13.227-9.078 21.244v103.825c0 86.426 72.789 157.137 161.754 157.137h283.524c13.862 0 25.126-10.944 25.126-24.453v-102.62c0-16.436 14.033-30.065 30.95-30.065 17.331 0 30.946 13.629 30.946 30.065v102.62c0 13.509 11.264 24.453 25.173 24.453h134.519c89.126 0 161.34-70.151 161.34-156.737v-101.017c0-8.017-3.302-15.633-9.079-21.244zM586.688 325.538c17.331 0 30.946 13.628 30.946 30.063v160.346c0 16.435-13.615 30.064-30.946 30.064-16.917 0-30.95-13.629-30.95-30.064v-160.346c0-16.435 14.033-30.063 30.95-30.063z" />
<glyph unicode="&#xe955;" glyph-name="Ticket-Star" data-tags="Ticket Star" d="M843.136 447.957c0-34.709 28.501-62.95 63.531-62.95 17.664 0 32-14.204 32-31.706v-114.189c0-96.563-79.275-175.113-176.725-175.113h-499.84c-97.451 0-176.768 78.549-176.768 175.113v114.189c0 17.502 14.336 31.706 32 31.706 35.072 0 63.573 28.241 63.573 62.95 0 33.822-27.349 59.273-63.573 59.273-8.491 0-16.597 3.341-22.613 9.301s-9.387 14.037-9.387 22.406l0.085 117.91c0 96.56 79.275 175.153 176.725 175.153h499.712c97.451 0 176.768-78.592 176.768-175.153l0.043-114.232c0-8.371-3.371-16.489-9.344-22.406-6.016-5.961-14.123-9.301-22.656-9.301-35.029 0-63.531-28.241-63.531-62.95zM608.085 420.352l50.304 48.533c8.747 8.371 11.776 20.715 7.979 32.128-3.755 11.418-13.568 19.533-25.429 21.184l-69.504 10.061-31.104 62.4c-5.333 10.738-16.171 17.418-28.245 17.46h-0.085c-12.032 0-22.869-6.68-28.288-17.418l-31.104-62.442-69.376-10.018c-11.989-1.694-21.803-9.809-25.6-21.227-3.755-11.413-0.725-23.757 7.979-32.128l50.304-48.533-11.861-68.617c-2.048-11.836 2.773-23.59 12.587-30.652 5.547-3.93 11.989-5.961 18.517-5.961 4.992 0 10.027 1.229 14.635 3.635l62.208 32.384 62.080-32.299c10.752-5.705 23.509-4.817 33.28 2.283 9.856 7.019 14.677 18.773 12.629 30.609l-11.904 68.617z" />
<glyph unicode="&#xe956;" glyph-name="Time-Circle" data-tags="Time Circle" d="M512 21.329c-235.52 0-426.667 190.72-426.667 426.667 0 235.52 191.147 426.666 426.667 426.666 235.947 0 426.667-191.147 426.667-426.666 0-235.947-190.72-426.667-426.667-426.667zM648.107 289.702c5.12-2.987 10.667-4.693 16.64-4.693 10.667 0 21.333 5.547 27.307 15.787 8.96 14.933 4.267 34.56-11.093 43.947l-151.893 90.453v197.12c0 17.92-14.507 32-32 32s-32-14.080-32-32v-215.466c0-11.093 5.973-21.333 15.787-27.307l167.253-99.84z" />
<glyph unicode="&#xe957;" glyph-name="Time-Square" data-tags="Time Square" d="M327.249 874.662h369.92c144.64 0 241.493-101.504 241.493-252.544v-348.586c0-150.656-96.853-252.203-241.493-252.203h-369.92c-144.64 0-241.92 101.547-241.92 252.203v348.586c0 151.040 97.28 252.544 241.92 252.544zM664.742 285.436c10.667 0 21.333 5.547 27.307 15.787 9.387 14.976 4.267 34.603-11.093 43.947l-151.893 90.453v197.162c0 17.451-14.080 32-32 32-17.493 0-32-14.549-32-32v-215.509c0-11.093 5.973-21.76 15.787-27.307l167.253-99.84c5.12-3.413 11.093-4.693 16.64-4.693z" />
<glyph unicode="&#xe958;" glyph-name="Unlock" data-tags="Unlock" d="M350.979 588.328h341.553c100.582 0 182.135-79.771 182.135-178.156v-210.684c0-98.385-81.553-178.155-182.135-178.155h-361.106c-100.541 0-182.092 79.77-182.092 178.155v210.684c0 80.913 55.495 148.471 131.020 170.184l-4.726-0.551v65.011c0.867 126.758 106.264 229.851 235.464 229.851 101.018 0 190.285-62.382 223.236-154.789 3.469-9.33 2.598-19.508-1.737-28.413s-12.096-15.691-21.679-18.702c-19.507-6.743-41.186 3.392-48.555 22.9-22.114 62.806-82.765 104.79-150.4 104.79-88.489 0-159.982-69.591-160.459-154.789v-57.251l-0.52-0.085zM511.782 220.651c21.244 0 38.153 16.538 38.153 37.321v94.144c0 20.356-16.909 36.894-38.153 36.894-20.809 0-37.717-16.538-37.717-36.894v-94.144c0-20.783 16.909-37.321 37.717-37.321z" />
<glyph unicode="&#xe959;" glyph-name="Upload" data-tags="Upload" d="M361.209 736.587c-9.518-12.855-8.425-31.191 3.6-42.827 12.8-12.8 33.707-12.8 46.507 0l67.84 68.267v-176.64h65.707v176.64l67.84-68.267 3.678-3.174c12.855-9.521 31.194-8.463 42.829 3.174 6.4 6.4 9.813 14.933 9.813 23.467 0 8.107-3.413 16.64-9.813 23.040l-124.16 124.587-3.87 3.478c-5.517 4.151-12.343 6.335-19.17 6.335-8.96 0-17.067-3.413-23.467-9.813l-124.16-124.587-3.173-3.68zM265.863 585.168c-100.405-4.742-180.529-89.202-180.529-192.102v-211.844l0.207-9.067c4.662-102.178 87.699-184.111 189.66-184.111l482.935 0.209c100.407 4.745 180.531 89.216 180.531 192.533v211.413l-0.209 9.101c-4.685 102.554-88.111 184.077-189.658 184.077h-203.947v-260.467l-0.303-4.578c-2.206-16.444-16.124-28.847-32.55-28.847-18.347 0-32.853 14.758-32.853 33.425v260.467l-213.284-0.21z" />
<glyph unicode="&#xe95a;" glyph-name="User2" data-tags="User2" d="M606.396 628.804c0-112.802-92.309-203.195-207.491-203.195-115.142 0-207.489 90.394-207.489 203.195s92.347 203.196 207.489 203.196c115.182 0 207.491-90.396 207.491-203.196zM85.333 195.524c0 104.422 144.449 130.547 313.571 130.547 170.042 0 313.573-27.025 313.573-131.529 0-104.418-144.452-130.543-313.573-130.543-170.041 0-313.571 27.025-313.571 131.524zM690.065 625.12c0-57.443-17.617-111.042-48.512-155.565-3.213-4.578-0.375-10.752 5.218-11.733 7.765-1.267 15.74-2.044 23.881-2.21 80.994-2.082 153.677 48.981 173.756 125.885 29.769 114.109-57.57 216.565-168.828 216.565-12.066 0-23.629-1.227-34.901-3.475-1.545-0.327-3.217-1.063-4.049-2.371-1.088-1.676-0.294-3.843 0.794-5.274 33.438-45.913 52.642-101.802 52.642-161.821zM824.205 375.369c54.438-10.423 90.214-31.646 105.037-62.596 12.565-25.348 12.565-54.784 0-80.132-22.669-47.915-95.812-63.33-124.241-67.294-5.888-0.819-10.607 4.087-9.98 9.894 14.528 132.791-100.988 195.755-130.88 210.227-1.254 0.695-1.545 1.677-1.421 2.33 0.085 0.41 0.627 1.062 1.587 1.186 64.67 1.225 134.221-7.484 159.898-13.615z" />
<glyph unicode="&#xe95b;" glyph-name="User3" data-tags="User3" d="M689.421 608.732c0-100.252-79.923-180.64-179.597-180.64s-179.595 80.388-179.595 180.64c0 100.291 79.922 180.602 179.595 180.602s179.597-80.31 179.597-180.602zM509.824 106.667c-146.396 0-271.399 23.211-271.399 116.045 0 92.877 124.201 116.932 271.399 116.932 146.398 0 271.403-23.211 271.403-116.087 0-92.834-124.203-116.89-271.403-116.89zM766.17 605.473c0-51.107-15.245-98.717-41.988-138.295-2.748-4.075-0.303-9.57 4.548-10.415 6.686-1.152 13.602-1.805 20.629-1.997 70.106-1.843 133.026 43.537 150.409 111.857 25.749 101.483-49.856 192.591-146.129 192.591-10.466 0-20.476-1.114-30.221-3.112-1.335-0.308-2.748-0.922-3.511-2.114-0.917-1.46-0.23-3.42 0.687-4.688 28.919-40.77 45.577-90.493 45.577-143.828zM882.27 383.462c47.108-9.259 78.089-28.164 90.927-55.637 10.85-22.558 10.85-48.725 0-71.245-19.639-42.611-82.94-56.294-107.546-59.827-5.082-0.768-9.169 3.648-8.631 8.759 12.565 118.084-87.411 174.071-113.276 186.944-1.109 0.576-1.335 1.459-1.225 1.997 0.077 0.384 0.538 0.998 1.378 1.114 55.966 1.037 116.139-6.647 138.372-12.105zM274.65 454.771c7.029 0.192 13.906 0.806 20.63 1.997 4.852 0.845 7.297 6.34 4.546 10.415-26.743 39.578-41.986 87.188-41.986 138.294 0 53.335 16.657 103.058 45.577 143.828 0.917 1.268 1.566 3.228 0.687 4.688-0.764 1.153-2.216 1.806-3.514 2.114-9.78 1.998-19.79 3.112-30.257 3.112-96.274 0-171.879-91.107-146.092-192.591 17.383-68.32 80.305-113.7 150.409-111.857zM281.469 394.475c0.114-0.576-0.115-1.421-1.184-2.035-25.902-12.873-125.882-68.86-113.312-186.901 0.535-5.15-3.515-9.532-8.596-8.802-24.603 3.537-87.907 17.216-107.544 59.831-10.888 22.554-10.888 48.683 0 71.241 12.837 27.473 43.782 46.379 90.887 55.68 22.273 5.419 82.406 13.103 138.412 12.066 0.841-0.115 1.261-0.734 1.337-1.079z" />
<glyph unicode="&#xe95c;" glyph-name="Video" data-tags="Video" d="M260.823 768h247.128c103.339 0 175.488-71.212 175.488-173.265v-293.469c0-102.054-72.149-173.265-175.488-173.265h-247.128c-103.34 0-175.49 71.211-175.49 173.265v293.469c0 102.053 72.15 173.265 175.49 173.265zM851.541 666.497c18.731 9.53 40.704 8.533 58.581-2.729 17.877-11.219 28.544-30.711 28.544-52.023v-327.517c0-21.355-10.667-40.802-28.544-52.023-9.771-6.106-20.693-9.225-31.701-9.225-9.173 0-18.347 2.167-26.923 6.541l-63.189 31.881c-23.381 11.87-37.888 35.691-37.888 62.161v248.894c0 26.51 14.507 50.334 37.888 62.116l63.232 31.924z" />
<glyph unicode="&#xe95d;" glyph-name="Voice" data-tags="Voice" d="M519.458 310.724h-14.925c-102.543 0-185.661 82.121-185.661 183.343v197.258c0 101.262 83.118 183.341 185.661 183.341h14.925c102.541 0 185.702-82.079 185.702-183.341v-197.258c0-101.222-83.162-183.343-185.702-183.343zM792.004 499.93c0 22.571 18.517 40.817 41.331 40.817s41.331-18.246 41.331-40.817c0-183.625-140.774-335.253-321.314-355.622v-82.159c0-22.528-18.517-40.815-41.331-40.815-22.857 0-41.331 18.287-41.331 40.815v82.159c-180.58 20.369-321.357 171.998-321.357 355.622 0 22.571 18.516 40.817 41.332 40.817s41.332-18.246 41.332-40.817c0-152.444 125.608-276.48 280.024-276.48 154.372 0 279.983 124.036 279.983 276.48z" />
<glyph unicode="&#xe95e;" glyph-name="Voice-2" data-tags="Voice 2" d="M519.458 310.763h-14.925c-102.543 0-185.661 82.078-185.661 183.3v197.262c0 101.263 83.118 183.342 185.661 183.342h14.925c85.099 0 156.813-56.489 178.761-133.588 3.017-10.571-4.962-21.061-16.038-21.061h-48.316c-14.592 0-26.453-11.673-26.453-26.081v-0.041c0-14.449 11.861-26.122 26.453-26.122h44.553c14.758 0 26.743-11.796 26.743-26.367s-11.985-26.367-26.743-26.367h-44.553c-14.592 0-26.453-11.714-26.453-26.162 0-14.408 11.861-26.122 26.453-26.122h44.553c14.758 0 26.743-11.796 26.743-26.408 0-14.531-11.985-26.324-26.743-26.324h-44.553c-14.592 0-26.453-11.716-26.453-26.163 0-14.409 11.861-26.082 26.453-26.082h45.961c11.324 0 19.426-10.94 15.872-21.551-24.512-72.896-94.114-125.466-176.239-125.466zM792.004 499.934c0 22.571 18.517 40.815 41.331 40.815s41.331-18.244 41.331-40.815c0-183.629-140.774-335.258-321.314-355.622v-82.163c0-22.528-18.517-40.815-41.331-40.815-22.857 0-41.331 18.287-41.331 40.815v82.163c-180.58 20.365-321.357 171.994-321.357 355.622 0 22.571 18.516 40.815 41.332 40.815s41.332-18.244 41.332-40.815c0-152.444 125.608-276.484 280.024-276.484 154.372 0 279.983 124.041 279.983 276.484z" />
<glyph unicode="&#xe95f;" glyph-name="Volume-Down" data-tags="Volume Down" d="M645.956 748.539c5.508-21.484 7.748-43.013 9.899-63.763l2.014-18.872c7.706-62.985 7.706-372.413 0-435.854l-2.052-19.925c-1.911-19.627-3.895-39.94-9.549-61.611-15.006-51.26-55.006-84.514-100.425-84.514-1.434 0-2.867 0-4.48 0.047-25.084 0-52.361 15.39-67.814 28.813l-150.638 125.466h-77.357c-59.709 0-103.426 43.196-111.354 110.029-9.137 66.829-7.346 181.487 0 242.225 8.645 63.26 54.423 107.097 111.354 107.097h77.357l147.771 123.633c17.826 15.483 49.271 30.782 74.133 30.691 44.565 0 86.135-32.065 101.141-83.46zM774.298 692.975c17.873 12.506 42.33 8.016 54.558-10.077 43.268-63.718 67.145-147.132 67.145-234.898s-23.876-171.179-67.145-234.897c-7.347-10.765-19.349-17.225-32.205-17.225-8.017 0-15.77 2.475-22.353 7.147-17.737 12.642-22.127 37.653-9.809 55.791 34.266 50.479 53.124 117.679 53.124 189.184 0 71.552-18.859 138.703-53.124 189.183-12.318 18.139-7.927 43.15 9.809 55.793z" />
<glyph unicode="&#xe960;" glyph-name="Volume-Off" data-tags="Volume Off" d="M871.258 820.444c15.36 15.356 39.838 15.446 55.782 0.045 15.492-15.491 15.492-40.511 0.047-55.956l-731.679-731.636c-7.272-7.27-17.751-11.563-27.959-11.563-9.982 0-19.829 4.066-27.779 11.426-15.537 16.124-15.537 40.649-0.135 56.047l120.599 120.585h-1.22c-60.119 0-103.887 42.453-112.017 108.39-9.079 65.937-7.272 178.846 0 238.912 8.537 62.324 54.654 105.184 112.017 105.184h78.096l149.053 121.94c18.116 15.355 50.185 29.853 74.982 30.259 45.167 0 86.72-31.569 101.628-82.151 5.871-21.272 8.175-42.453 9.98-62.822l3.571-28.859c0.585-4.426 1.126-8.672 1.579-13.188l193.455 193.387zM634.918 374.127c6.097 5.961 19.738 10.253 25.877 8.67 16.58-4.198 19.831-27.998 19.558-46.699-0.768-54.285-2.573-92.041-5.466-115.388l-2.031-19.243-0.034-0.354c-1.933-19.354-3.93-39.381-9.677-60.749-15.040-50.492-55.377-83.281-101.222-83.281-1.489 0-2.982 0-4.518 0.047-25.335 0-52.8 15.172-68.382 28.407l-55.514 42.948c-21.092 15.671-14.859 40.691-3.025 55.189 8.836 10.79 115.051 108.297 170.837 159.509 18.918 17.365 32.038 29.41 33.596 30.942z" />
<glyph unicode="&#xe961;" glyph-name="Volume-Up" data-tags="Volume Up" d="M569.903 684.776c-2.146 20.751-4.386 42.28-9.886 63.763-14.989 51.395-56.508 83.46-101.026 83.46-24.828 0.092-56.237-15.208-74.044-30.691l-147.598-123.633h-77.266c-56.864 0-102.589-43.837-111.224-107.097-7.337-60.738-9.127-175.396 0-242.225 7.919-66.833 51.585-110.029 111.224-110.029h77.266l150.461-125.466c15.435-13.423 42.683-28.813 67.737-28.813 1.609-0.047 3.042-0.047 4.471-0.047 45.367 0 85.321 33.254 100.309 84.514 5.645 21.67 7.625 41.984 9.54 61.611l0.034 0.367 2.014 19.558c7.693 63.441 7.693 372.869 0 435.854l-2.014 18.872zM742.682 682.898c-12.305 18.14-36.689 22.674-54.541 10.077-17.673-12.688-22.054-37.699-9.754-55.793 34.227-50.433 53.065-117.588 53.065-189.183 0-71.552-18.837-138.748-53.065-189.184-12.301-18.091-7.919-43.102 9.801-55.791 6.622-4.672 14.362-7.147 22.323-7.147 12.843 0 24.832 6.46 32.171 17.225 43.217 63.671 67.063 147.085 67.063 234.897s-23.846 171.226-67.063 234.898zM823.044 822.568c17.805 12.643 42.278 8.016 54.494-10.078 66.931-98.531 103.795-228.027 103.795-364.486 0-136.55-36.864-266.001-103.795-364.531-7.296-10.765-19.328-17.225-32.171-17.225-7.962 0-15.659 2.475-22.281 7.147-17.715 12.689-22.101 37.653-9.843 55.791 57.894 85.295 89.796 198.528 89.796 318.818 0 120.244-31.902 233.478-89.796 318.771-12.258 18.094-7.872 43.104 9.801 55.793z" />
<glyph unicode="&#xe962;" glyph-name="Wallet" data-tags="Wallet" d="M758.14 602.377h180.527c0 144.948-86.852 229.623-234.001 229.623h-385.329c-147.152 0-234.003-84.676-234.003-227.775v-312.449c0-143.1 86.851-227.776 234.003-227.776h385.329c147.149 0 234.001 84.676 234.001 227.776v13.312h-180.527c-83.785 0-151.706 66.219-151.706 147.904s67.921 147.905 151.706 147.905v1.479zM758.14 538.777h148.668c17.596 0 31.859-13.905 31.859-31.061v-107.972c-0.205-17.071-14.349-30.861-31.859-31.057h-145.254c-42.415-0.559-79.505 27.755-89.126 68.036-4.817 25.003 1.946 50.803 18.479 70.49 16.529 19.682 41.139 31.238 67.234 31.564zM764.587 425.259h14.033c18.014 0 32.614 14.238 32.614 31.799s-14.601 31.799-32.614 31.799h-14.033c-8.614 0.098-16.913-3.166-23.040-9.071s-9.579-13.956-9.574-22.357c-0.004-17.626 14.541-31.966 32.614-32.171zM287.479 602.377h240.829c18.014 0 32.619 14.237 32.619 31.8s-14.605 31.799-32.619 31.799h-240.829c-17.867 0.001-32.409-14.012-32.617-31.43-0.001-17.623 14.542-31.967 32.617-32.169z" />
<glyph unicode="&#xe963;" glyph-name="Work" data-tags="Work" d="M456.721 809.857c-28.604 0-52.935-19.875-59.765-46.663h229.66c-6.827 26.788-31.159 46.663-59.763 46.663h-110.131zM691.503 763.194h84.523c89.643 0 162.641-73.883 162.641-164.617 0 0-2.56-38.411-3.413-91.902-0.085-4.233-2.138-8.38-5.508-10.889-20.531-15.164-39.317-27.695-41.024-28.557-70.861-47.526-153.207-80.969-240.93-97.604-5.722-1.122-11.354 1.856-14.259 6.955-24.589 42.603-70.519 70.34-121.745 70.34-50.884 0-97.243-27.435-122.557-70.080-2.945-5.013-8.495-7.906-14.172-6.827-86.998 16.678-169.344 50.078-239.779 96.785l-40.98 28.514c-3.415 2.159-5.55 6.050-5.55 10.368-1.28 22.037-3.415 92.896-3.415 92.896 0 90.734 72.997 164.617 162.641 164.617h84.095c8.111 62.649 60.617 111.473 124.651 111.473h110.131c64.034 0 116.54-48.823 124.651-111.473zM924.151 413.218l-1.707-0.866c-86.229-57.894-189.961-96.35-298.816-112.337-15.369-2.159-30.737 7.778-35.004 23.33-9.391 35.43-39.701 58.765-75.985 58.765h-1.28c-36.284 0-66.594-23.334-75.985-58.765-4.267-15.552-19.636-25.489-35.004-23.33-108.854 15.987-212.586 54.443-298.816 112.337-0.427 0.431-4.695 3.025-8.111 0.866-3.842-2.163-3.842-7.347-3.842-7.347l2.988-220.352c0-90.735 72.57-164.186 162.214-164.186h513.963c89.647 0 162.214 73.451 162.214 164.186l3.418 220.352c0 0 0 5.184-3.844 7.347-2.133 1.293-4.693 0.862-6.404 0zM543.804 232.179c0-18.146-14.089-32.401-32.017-32.401-17.502 0-32.017 14.255-32.017 32.401v55.74c0 17.715 14.515 32.405 32.017 32.405 17.929 0 32.017-14.69 32.017-32.405v-55.74z" />
</font>
</defs>
</svg>
